<?xml version="1.0" standalone="no"?>
<!DOCTYPE svg PUBLIC "-//W3C//DTD SVG 1.1//EN" "http://www.w3.org/Graphics/SVG/1.1/DTD/svg11.dtd" >
<svg xmlns="http://www.w3.org/2000/svg" xmlns:xlink="http://www.w3.org/1999/xlink" version="1.1">
<metadata>
Created by FontForge 20170812 at Mon May  9 07:49:02 2022
 By www-data
</metadata>
<defs>
<font id="HeyMotherRegular" horiz-adv-x="0" >
  <font-face 
    font-family="Hey Mother"
    font-weight="400"
    font-stretch="normal"
    units-per-em="1000"
    panose-1="0 0 0 0 0 0 0 0 0 0"
    ascent="800"
    descent="-200"
    x-height="227.061"
    cap-height="723.58"
    bbox="-233 -551.381 1363.16 865.546"
    underline-thickness="50"
    underline-position="-100"
    unicode-range="U+000A-20AC"
  />
<missing-glyph horiz-adv-x="527" 
d="M50 700h427v-700h-427v700zM78 680l185 -309l186 309h-371zM251 350l-180 300v-601zM264 329l-185 -308h370zM276 350l181 -303v605z" />
    <glyph glyph-name=".notdef" horiz-adv-x="527" 
d="M50 700h427v-700h-427v700zM78 680l185 -309l186 309h-371zM251 350l-180 300v-601zM264 329l-185 -308h370zM276 350l181 -303v605z" />
    <glyph glyph-name=".null" 
 />
    <glyph glyph-name=".null" 
 />
    <glyph glyph-name="LF" unicode="&#xa;" 
 />
    <glyph glyph-name="controlCR" unicode="&#xd;" 
 />
    <glyph glyph-name="space" unicode=" " horiz-adv-x="460" 
 />
    <glyph glyph-name="exclam" unicode="!" horiz-adv-x="182" 
d="M130.506 238.229c-0.180664 -37.6377 -0.767578 -75.2607 -1.38867 -112.896c-0.595703 -36.0527 2.49414 -75.6738 -7.16797 -110.655c-5.10742 -18.4912 -56.0684 -18.5371 -61.2471 0c-9.76172 34.9561 -6.77148 74.6055 -7.47363 110.654
c-0.730469 37.6348 -1.42188 75.2588 -1.71289 112.896c-0.578125 75.166 -3.29199 150.69 0.34375 225.793c1.47949 30.5439 76.0889 30.3984 77.6494 0c3.85254 -75.0918 1.35547 -150.627 0.99707 -225.793zM57.6611 -70.8213
c2.3125 26.9902 69.3408 26.542 68.5068 -0.000976562c-0.443359 -13.9971 -1.34082 -28.0186 -2.18164 -42.001c-0.947266 -15.7314 -0.638672 -27.6748 -15.7568 -35.6982c-10.5703 -5.61133 -22.542 -4.59668 -33.1553 0
c-10.0488 4.35254 -13.2588 9.57422 -15.3447 19.9463c-3.75293 18.6475 -3.68945 38.8691 -2.06836 57.7539z" />
    <glyph glyph-name="quotedbl" unicode="&#x22;" horiz-adv-x="246" 
d="M52.9258 532.247c3.20703 25.3721 66.3662 24.2363 64.0674 -0.000976562c-3.40527 -35.9531 -5.96582 -73.1299 -5.46582 -109.225c0.226562 -16.458 -31.6934 -15.4688 -40.7314 -9.61621c-16.8662 10.9219 -17.8242 32.4248 -19.6406 51.1211
c-2.19531 22.6406 -1.07422 45.207 1.77051 67.7207zM130.213 530.292c3.50098 26.3828 68.8633 23.9258 65.4541 0.00390625c-3.16797 -22.2363 -4.36719 -44.4414 -4.45898 -66.877c-0.0888672 -21.29 3.09277 -40.377 -12.2197 -56.8955
c-4.54688 -4.90234 -15.6387 -4.90918 -20.9346 -1.53613c-20.8467 13.2695 -25.4434 31.3955 -28.7666 55.0869c-3.27441 23.3291 -2.16406 46.9492 0.925781 70.2178z" />
    <glyph glyph-name="quotedbl" unicode="&#x201d;" horiz-adv-x="246" 
d="M52.9258 532.247c3.20703 25.3721 66.3662 24.2363 64.0674 -0.000976562c-3.40527 -35.9531 -5.96582 -73.1299 -5.46582 -109.225c0.226562 -16.458 -31.6934 -15.4688 -40.7314 -9.61621c-16.8662 10.9219 -17.8242 32.4248 -19.6406 51.1211
c-2.19531 22.6406 -1.07422 45.207 1.77051 67.7207zM130.213 530.292c3.50098 26.3828 68.8633 23.9258 65.4541 0.00390625c-3.16797 -22.2363 -4.36719 -44.4414 -4.45898 -66.877c-0.0888672 -21.29 3.09277 -40.377 -12.2197 -56.8955
c-4.54688 -4.90234 -15.6387 -4.90918 -20.9346 -1.53613c-20.8467 13.2695 -25.4434 31.3955 -28.7666 55.0869c-3.27441 23.3291 -2.16406 46.9492 0.925781 70.2178z" />
    <glyph glyph-name="quotedbl" unicode="&#x201c;" horiz-adv-x="246" 
d="M52.9258 532.247c3.20703 25.3721 66.3662 24.2363 64.0674 -0.000976562c-3.40527 -35.9531 -5.96582 -73.1299 -5.46582 -109.225c0.226562 -16.458 -31.6934 -15.4688 -40.7314 -9.61621c-16.8662 10.9219 -17.8242 32.4248 -19.6406 51.1211
c-2.19531 22.6406 -1.07422 45.207 1.77051 67.7207zM130.213 530.292c3.50098 26.3828 68.8633 23.9258 65.4541 0.00390625c-3.16797 -22.2363 -4.36719 -44.4414 -4.45898 -66.877c-0.0888672 -21.29 3.09277 -40.377 -12.2197 -56.8955
c-4.54688 -4.90234 -15.6387 -4.90918 -20.9346 -1.53613c-20.8467 13.2695 -25.4434 31.3955 -28.7666 55.0869c-3.27441 23.3291 -2.16406 46.9492 0.925781 70.2178z" />
    <glyph glyph-name="numbersign" unicode="#" horiz-adv-x="472" 
d="M421.128 509.549c-13.5146 -53.0361 -32.9121 -104.604 -49.1582 -156.874c-6.36035 -20.46 -12.5537 -40.9727 -18.6543 -61.5176c15.2988 -0.163086 30.5938 -0.443359 45.8926 -0.950195c16.6357 -0.549805 16.71 -16.2314 0 -15.667
c-16.8486 0.571289 -33.6973 0.851562 -50.542 1.00098c-7.57617 -25.8232 -14.9434 -51.7061 -22.1045 -77.6455c-3.01465 -10.918 -5.92676 -21.8643 -8.89941 -32.793c17.4443 0.369141 34.8857 0.738281 52.3271 1.11426
c16.9658 0.365234 16.7393 -15.4756 0.000976562 -15.8271c-18.8848 -0.393555 -37.7656 -0.801758 -56.6465 -1.20605c-9.64453 -35.7051 -19.1689 -71.4346 -28.4834 -107.239c-13.6807 -52.5889 -23.2012 -110.073 -47.5195 -158.928
c-6.84961 -13.7588 -45.5195 -14.8193 -46.8672 3.61523c-3.87305 52.9121 12.458 109.356 23.8047 160.757c7.39258 33.4951 15.3877 66.9121 23.8262 100.201c-11.7803 -0.248047 -23.5605 -0.489258 -35.3408 -0.726562
c-8.30371 -30.9766 -16.501 -61.9814 -24.9961 -92.9082c-14.1924 -51.6699 -25.3945 -105.982 -47.667 -154.896c-7.11523 -15.6289 -55.8271 -17.2461 -54.7598 4.22461c2.66406 53.6885 18.9951 107.416 31.2891 159.544
c6.50879 27.6035 13.4502 55.1182 20.5801 82.5869c-21.7754 -0.393555 -43.5508 -0.776367 -65.3262 -1.10938c-15.9688 -0.241211 -15.7129 14.4512 0.000976562 14.8799c23.1338 0.634766 46.2646 1.2168 69.3984 1.78125c4.96191 18.917 9.9707 37.8154 15.0146 56.6963
c4.51855 16.916 9.05176 33.8887 13.6416 50.8789c-18.7998 -1.5498 -37.585 -3.27344 -56.3457 -5.32715c-12.8193 -1.40137 -24.3369 12.2793 -6.94238 14.3477c22.4922 2.6748 45.0195 4.8916 67.5723 6.78223c22.4854 82.5371 46.7617 165.28 78.7207 244.149
c9.95703 24.5674 79.3984 19.793 70.332 -11.0527c-22.4355 -76.3154 -47.0381 -151.918 -70.0693 -228.046c11.3467 0.49707 22.7012 0.873047 34.0586 1.1748c7.1582 24.5674 14.4863 49.085 22.0205 73.5391c16.1533 52.4365 31.3564 105.884 53.3799 156.199
c10.3252 23.5879 76.2441 19.7744 68.4619 -10.7588zM253.381 205.95c6.27148 22.999 12.7324 45.9463 19.3262 68.8564c-11.418 -0.326172 -22.8291 -0.734375 -34.2402 -1.24902c-6.36328 -21.2793 -12.624 -42.5977 -18.6221 -64.0039
c-4.36621 -15.5859 -8.61914 -31.2041 -12.833 -46.8291c11.7021 0.258789 23.4043 0.514648 35.1064 0.766602c3.66797 14.1816 7.41406 28.3418 11.2627 42.459z" />
    <glyph glyph-name="dollar" unicode="$" horiz-adv-x="387" 
d="M284.087 199.363c50.6279 -69.2354 86.5908 -177.195 3.47949 -237.857c-19.0332 -13.8936 -40.5498 -21.9805 -62.5986 -24.9248c2.83789 -37.4609 6.41016 -74.8867 10.8896 -112.27c1.2168 -10.1592 -25.9473 -10.8652 -27.2139 -0.000976562
c-4.32031 37.0283 -7.74316 74.0986 -10.4531 111.201c-49.6025 2.52246 -97.9775 29.7246 -123.378 75.0137c-39.0713 69.6611 -17.5762 177.748 73.875 187.201c13.2373 1.36914 25.1025 -12.8867 7.16113 -14.8057
c-56.4062 -6.03027 -78.6709 -67.5049 -71.4736 -117.082c6.84961 -47.1865 40.3945 -98.1865 89.6494 -108.487c7.66895 -1.60352 15.3125 -2.10742 22.7646 -1.62891c-5.45508 82.8496 -7.32129 165.852 -6.94922 248.893
c-43.498 48.0137 -93.3809 91.2207 -123.521 148.605c-42.7988 81.4766 2.27441 175.776 92.1572 194.644c13.9795 2.93652 28.1963 3.68457 42.1152 2.29102c0.862305 18.2002 1.73828 36.3965 2.61816 54.582c0.475586 9.81836 25.1494 9.50293 24.7197 0
c-0.893555 -19.8174 -1.78418 -39.6494 -2.65723 -59.4814c15.0215 -4.50098 29.2627 -11.7012 41.9326 -21.6865c34.6582 -27.3232 50.4814 -69.3242 58.1328 -111.495c1.96191 -10.8047 -27.2871 -11.6309 -29.7061 0c-8.1123 39.0254 -30.8418 93.8594 -71.3174 111.145
c-3.51855 -81.6895 -6.55859 -163.471 -7.83887 -245.238c23.4678 -25.415 47.1406 -50.624 67.6113 -78.6172zM191.298 305.768c1.74902 74.3115 4.83398 148.615 8.28516 222.838c-2.06445 0.0605469 -4.15332 0.0498047 -6.28516 -0.0810547
c-48.123 -2.92676 -72.4102 -56.3633 -69.3848 -99.042c3.29883 -46.5693 34.7471 -86.3496 64.2412 -120.178c1.03613 -1.18848 2.10059 -2.35547 3.14355 -3.53711zM269.085 12.1494c13.3262 41.4443 -7.5625 90.7236 -28.5752 126.074
c-7.41309 12.4717 -15.7129 24.2939 -24.6055 35.6729c0.393555 -70.7188 2.53613 -141.388 7.25 -211.942c21.1689 8.85742 38.3047 26.4756 45.9307 50.1953z" />
    <glyph glyph-name="percent" unicode="%" horiz-adv-x="547" 
d="M472.727 502.94c8.25391 -1.96875 31.4854 -12.8154 22.1562 -25.7373c-32.9414 -45.6436 -68.3555 -89.4854 -101.475 -135.022c-33.2295 -45.6865 -65.3945 -92.1074 -97.4385 -138.631c-32.1582 -46.6904 -63.2559 -94.0869 -95.2363 -140.895
c-32.2646 -47.2256 -63.2168 -95.3096 -100.6 -138.708c-9.64453 -11.1943 -58.3604 -9.66602 -48.9287 11.7588c22.2686 50.585 52.8906 96.9668 82.0195 143.816c29.6787 47.7363 60.8789 94.6182 92.1533 141.322c31.3564 46.8291 63.7559 92.998 96.8223 138.631
c33.0195 45.5654 65.8799 91.9756 102.737 134.541c10.5557 12.1875 33.6543 12.2939 47.7891 8.92383zM136.43 265.552c-58.3604 10.585 -61.6172 65.3418 -53.0791 113.28c-29.334 30.5225 -22.4844 82.9199 7.54492 115.648
c32.2109 35.1016 88.4893 31.0469 121.343 -1.10742c38.5459 -37.7266 41.3271 -100.527 29.8701 -149.906c-11.8936 -51.2559 -50.415 -87.9395 -105.679 -77.915zM122.758 494.669c-22.6729 -17.2812 -37.7637 -55.6992 -30.5029 -85.2998
c14.5361 14.4336 65.6494 8.95703 61.1162 -10.7148c-5.87402 -25.4961 -13.8691 -53.4258 -9.5918 -79.8271c2.83105 -17.4805 10.5635 -33.6484 29.4912 -22.7979c39.7949 22.8076 51.3232 83.1367 45.4141 124.556c-5.75293 40.3408 -47.0938 111.3 -95.9268 74.084z
M336.83 181.253c32.2148 35.1055 88.4883 31.0469 121.342 -1.10352c38.5459 -37.7266 41.3271 -100.527 29.8701 -149.906c-11.8936 -51.2559 -50.415 -87.9434 -105.679 -77.9189c-58.3564 10.585 -61.6162 65.3418 -53.0781 113.284
c-29.334 30.5225 -22.4844 82.916 7.54492 115.645zM419.21 -17.2002c39.7949 22.8115 51.3213 83.1406 45.4121 124.557c-5.75293 40.3447 -47.0938 111.301 -95.9268 74.085c-22.6729 -17.2812 -37.7588 -55.7002 -30.501 -85.3008
c14.5322 14.4326 65.6494 8.95605 61.1162 -10.7158c-5.87402 -25.4961 -13.873 -53.4258 -9.5918 -79.8271c2.83105 -17.4805 10.5635 -33.6484 29.4912 -22.7979z" />
    <glyph glyph-name="ampersand" unicode="&#x26;" horiz-adv-x="570" 
d="M507.109 -46.0273c8.80371 -2.5752 16.7559 -10.3936 11.0625 -19.251c-6.22852 -9.69727 -21.9033 -9.95996 -31.9062 -8.92773c-63.9365 6.58691 -127.433 25.1172 -185.523 54.1855c-13.5176 -16.1426 -29.4756 -30.3662 -48.46 -41.8232
c-55.8984 -33.7324 -141.937 -36.0098 -182.646 22.8047c-40.3623 58.3145 7.03027 121.758 46.6836 165.26c1.57129 1.72363 3.18164 3.41211 4.77441 5.11816c-9.36816 13.209 -18.0586 26.9473 -25.915 41.249c-61.9746 112.822 -73.2617 294.845 50.6201 372.235
c52.0605 32.5234 128.067 45.0908 181.426 8.6123c55.3242 -37.8193 53.0752 -118.761 33.1904 -175.156c-23.333 -66.1748 -72.1514 -118.955 -122.317 -166.181c-16.9834 -15.9863 -34.2686 -31.6641 -51.248 -47.6582
c31.8809 -51.2734 74.0127 -91.3516 122.083 -123.286c11.6631 25.2979 19.9736 52.4258 26.1172 78.9014c2.64648 11.3965 30.8955 9.84961 28.6006 -0.000976562c-7.41699 -31.8633 -17.5156 -63.8477 -32.2676 -92.9902
c54.207 -32.1406 114.635 -55.207 175.727 -73.0918zM197.726 531.97c-102.95 -81.792 -78.4287 -243.484 -22.4277 -347.627c32.2852 29.7959 65.1699 58.9854 93.7803 92.3887c44.3955 51.8301 81.0479 118.257 74.3936 188.677
c-3.5332 37.3652 -21.8252 73.7979 -60.0273 85.0811c-29.9053 8.83594 -61.6514 0.599609 -85.7188 -18.5195zM220.183 -56.998c23.8613 11.7764 43.1484 28.6191 58.8584 48.5186c-55.1924 30.8984 -104.653 71.626 -143.788 120.948
c-17.3379 -19.1543 -33.3779 -39.876 -43.7812 -63.1484c-15.1777 -33.9531 -11.1123 -72.1309 17.7471 -97.5029c30.8984 -27.1641 75.585 -26.2705 110.964 -8.81543z" />
    <glyph glyph-name="quotesingle" unicode="'" horiz-adv-x="167" 
d="M112.838 485.411c-0.702148 -17.6465 -5.72656 -44.4658 2.14062 -60.7686c10.5098 -21.7578 -41.4766 -24.7939 -51.7139 -12.4248c-14.334 17.3203 -13.1846 41.2598 -13.2588 62.8369c-0.0888672 25.4287 0.975586 50.7588 6.05859 75.7158
c4.68555 23.0029 62.6445 24.3398 61.2969 0c-1.20605 -21.8076 -3.65039 -43.5303 -4.52344 -65.3594z" />
    <glyph glyph-name="quotesingle" unicode="&#x2019;" horiz-adv-x="167" 
d="M112.838 485.411c-0.702148 -17.6465 -5.72656 -44.4658 2.14062 -60.7686c10.5098 -21.7578 -41.4766 -24.7939 -51.7139 -12.4248c-14.334 17.3203 -13.1846 41.2598 -13.2588 62.8369c-0.0888672 25.4287 0.975586 50.7588 6.05859 75.7158
c4.68555 23.0029 62.6445 24.3398 61.2969 0c-1.20605 -21.8076 -3.65039 -43.5303 -4.52344 -65.3594z" />
    <glyph glyph-name="quotesingle" unicode="&#x2018;" horiz-adv-x="167" 
d="M112.838 485.411c-0.702148 -17.6465 -5.72656 -44.4658 2.14062 -60.7686c10.5098 -21.7578 -41.4766 -24.7939 -51.7139 -12.4248c-14.334 17.3203 -13.1846 41.2598 -13.2588 62.8369c-0.0888672 25.4287 0.975586 50.7588 6.05859 75.7158
c4.68555 23.0029 62.6445 24.3398 61.2969 0c-1.20605 -21.8076 -3.65039 -43.5303 -4.52344 -65.3594z" />
    <glyph glyph-name="parenleft" unicode="(" horiz-adv-x="375" 
d="M294.737 -88.6602c4.90527 10.1729 34.9629 7.49121 29.7129 -4.66113c-27.6709 -64.1104 -112.166 -64.1387 -166.156 -37.6953c-66.9863 32.8066 -89.3047 105.823 -100.038 174.367c-11.915 76.0781 -9.34375 153.121 -2.27832 229.519
c6.51953 70.4629 17.1963 143.462 47.957 207.955c24.8223 52.043 75.2871 113.844 140.604 94.2783c15.7812 -4.72852 -3.24219 -14.4834 -12.4756 -12.167c-37.9541 9.52441 -52.9941 -38.1592 -63.2344 -64.6875c-11.3115 -29.3096 -19.335 -59.8604 -24.6631 -90.791
c-9.58398 -55.6328 -13.3115 -112.021 -15.3477 -168.395c-2.15625 -59.6621 -2.11328 -119.811 6.24707 -179.029c7.40234 -52.4229 19.3633 -109.584 52.2949 -152.528c12.5215 -16.3271 29.0615 -32.8457 50.8799 -33.4629
c24.5312 -0.695312 46.2324 16.0117 56.498 37.2979z" />
    <glyph glyph-name="parenright" unicode=")" horiz-adv-x="375" 
d="M321.936 239.062c5.72461 -76.2939 4.96875 -153.825 -11.291 -228.889c-14.6279 -67.54 -48.29 -129.273 -118.132 -150.911c-50.6738 -15.6963 -118.384 -7.05176 -141.894 47.4141c-5.28125 12.2373 24.8477 14.7598 29.7139 4.66797
c11.4609 -23.7725 38.3906 -42.4902 65.6709 -36.123c23.8467 5.56543 41.0186 29.1641 52.7451 49.0596c28.1143 47.6904 38.3975 104.834 44.1543 159.215c6.28516 59.417 5.24219 119.643 2.33008 179.24c-2.77051 56.6289 -6.80371 113.605 -19.0059 169.106
c-5.8418 26.5781 -14.5107 52.3721 -24.5527 77.6201c-9.75488 24.5215 -24.8438 61.957 -58.6719 53.4688c-9.25781 -2.31934 -28.2422 7.44238 -12.4756 12.167c76.3154 22.8574 129 -60.7861 151.627 -120.579c26.0039 -68.7178 34.3184 -142.653 39.7812 -215.457z" />
    <glyph glyph-name="asterisk" unicode="*" horiz-adv-x="315" 
d="M252.598 426.668c16.6318 0.400391 16.3994 -15.126 -0.00585938 -15.5059c-24.4219 -0.560547 -48.8369 -1.31934 -73.248 -2.18164c18.3203 -16.959 37.2725 -33.2471 56.8984 -48.79c9.31836 -7.38184 -14.9043 -12.7588 -21.8213 -7.27148
c-14.9053 11.833 -29.3916 24.1309 -43.541 36.7832c0.464844 -23.2939 1.61426 -46.5908 3.34863 -69.9062c0.748047 -10.0352 -24.8936 -10.252 -26.1035 -0.000976562c-2.69238 22.79 -4.25684 45.6543 -4.89551 68.5469
c-14.082 -16.1113 -27.4834 -32.8428 -40.0186 -50.2871c-5.40234 -7.5166 -29.3838 -4.03711 -23.8359 3.74512c16.3203 22.8896 33.9531 44.6436 52.7314 65.3262c-23.2969 -1.00391 -46.5908 -2.09668 -69.8779 -3.37402c-16.5117 -0.901367 -16.0967 14.4609 0 15.3545
c24.5107 1.36523 49.0283 2.52832 73.5498 3.59277c-19.8848 19.6436 -38.9756 40.1035 -57.1436 61.4531c-8.10547 9.52441 15.8271 13.9404 21.584 7.19043c13.915 -16.3135 28.3799 -32.0947 43.3027 -47.4111c0.624023 17.5332 1.68066 35.0557 3.22754 52.5459
c0.97168 10.9961 28.4082 10.3682 27.4893 0c-1.46094 -16.5117 -2.4043 -33.0195 -2.97168 -49.5244c13.3721 12.5322 27.2021 24.6133 41.6104 36.0986c7.07617 5.64355 31.416 0.0566406 22.0625 -7.34961c-20.2783 -16.0576 -39.5674 -33.2295 -57.8809 -51.3584
c25.1738 0.918945 50.3545 1.72461 75.5391 2.32422z" />
    <glyph glyph-name="plus" unicode="+" horiz-adv-x="323" 
d="M260.344 244.159c16.6504 -0.5 16.7021 -16.2178 -0.00488281 -15.668c-18.4092 0.602539 -36.7402 0.613281 -55.0361 0.205078c0.195312 -6.0127 0.408203 -12.0322 0.677734 -18.0449c1.25195 -27.8164 2.75977 -55.583 4.88086 -83.3457
c2.04297 -26.7168 6.57227 -54.5898 -4.4873 -79.7383c-5.91992 -13.4609 -36.8076 -14.1309 -45.1289 -3.3623c-18.0479 23.3545 -22.0244 50.8867 -25.9756 79.6396c-3.79199 27.5928 -6.45605 55.5225 -7.98145 83.3281
c-0.3125 5.69629 -0.571289 11.3965 -0.823242 17.0928c-20.5088 -1.78809 -41.0146 -3.97266 -61.5557 -6.54785c-12.0986 -1.51855 -23.002 10.6582 -6.57227 13.585c22.3291 3.97656 44.8711 6.94238 67.5156 9.07812c-1.54297 45.8037 -1.03223 91.625 2.31641 137.368
c2.27344 31.0508 79.7061 30.2637 78.4785 0c-1.79883 -44.3525 -2.70703 -88.7725 -1.74902 -133.157c18.5127 0.280273 37.0146 0.124023 55.4453 -0.432617z" />
    <glyph glyph-name="comma" unicode="," horiz-adv-x="208" 
d="M90.2256 75.6582c11.2305 23.0488 78.9658 15.9902 66.5898 -10.4678c-9.83301 -21.0205 -19.4316 -42.1465 -29.2744 -63.1631c-9.57031 -20.4346 -17.626 -43.4053 -36.9043 -56.249c-9.64844 -6.42773 -31.2324 -5.72559 -37.333 5.61816
c-9.30371 17.3027 3.35547 43.6611 9.55566 60.7969c7.86719 21.7402 17.2461 42.7002 27.3662 63.4648z" />
    <glyph glyph-name="hyphen" unicode="-" horiz-adv-x="314" 
d="M232.583 204.269c9.64453 0.606445 31.6572 -4.4668 31.3418 -17.8643c-0.34082 -14.3164 -20.7441 -17.2568 -31.3428 -17.8672c-54.7207 -3.16016 -110.154 -6.66797 -164.875 -2.21973c-23.8682 1.94043 -23.3467 26.3477 0 28.8203
c54.6533 5.78223 110.027 5.69727 164.876 9.13086z" />
    <glyph glyph-name="period" unicode="." horiz-adv-x="161" 
d="M83.9297 31.4121c8.06934 0 28.1904 -3.57812 27.0449 -15.415c-1.61719 -16.6611 -3.68848 -33.1904 -5.9834 -49.7734c-1.68848 -12.209 -17.1436 -15.6533 -27.4619 -15.6533c-8.00195 0 -28.8799 3.67871 -27.4609 15.6533
c1.97559 16.6572 4.16016 33.208 6.81348 49.7725c1.92285 12.0068 16.665 15.416 27.0479 15.416z" />
    <glyph glyph-name="slash" unicode="/" horiz-adv-x="385" 
d="M258.848 504.846c11.0488 26.0605 86.2676 19.8594 74.6045 -11.7236c-75.1377 -203.496 -153.092 -405.673 -216.386 -613.28c-6.71777 -22.0312 -64.6523 -19.1621 -66.7344 5.14941c-2.25195 26.291 7.41699 53.5859 15.1318 78.4082
c7.8252 25.1807 15.7705 50.3262 23.833 75.4326c16.8418 52.4434 34.7188 104.547 52.9688 156.516c36.4893 103.908 73.5771 208.083 116.582 309.498z" />
    <glyph glyph-name="zero" unicode="0" horiz-adv-x="392" 
d="M88.5371 -13.2158c-31.4023 50.667 -35.9434 116.047 -37.9365 174.095c-2.24902 65.4258 1.78027 130.586 12.624 195.143c0.553711 3.29883 2.02246 6.16797 4.12988 8.6543c-9.43848 44.1865 2.3418 92.7676 30.4629 128.192
c29.3838 37.0107 76.957 47.7793 120.058 28.8516c51.3652 -22.5557 73.7754 -76.248 91.4434 -125.84c39.5469 -111.017 44.9814 -234.299 9.53906 -347.284c-15.2529 -48.623 -43.7539 -96.6611 -94.3174 -114.436c-54.0898 -19.0156 -106.917 5.68945 -136.003 52.624z
M121.74 484.895c-23.2373 -29.8242 -34.334 -70.8984 -29.4102 -108.866c20.96 2.78125 45.0664 -4.34082 42.7217 -20.001c-2.66699 -17.8418 -4.95117 -35.7549 -6.89453 -53.7139c18.4375 -19.5088 42.4512 -32.459 67.3447 -24.0664
c9.55957 3.22461 27.7881 -6.86328 12.4756 -12.166c-28.5576 -9.88574 -57.7607 -2.70312 -82.0898 13.248c-2.80566 -31.4023 -4.42285 -62.9072 -4.5332 -94.3945c-0.191406 -54.8945 -0.638672 -114.961 17.377 -167.447
c6.04395 -17.6113 14.5645 -35.375 28.5254 -48.0947c15.2236 -13.8691 29.1602 -12.8652 46.3066 -1.84766c35.1768 22.6055 51.9902 66.0752 63.3164 104.412c26.8652 90.9336 31.0898 188.563 12.627 281.575c-8.91406 44.8887 -22.8613 94.9414 -54.1465 129.83
c-14.4365 16.1006 -34.3887 29.9023 -56.54 31.7891c-23.6631 2.01855 -43.1934 -12.4326 -57.0801 -30.2568z" />
    <glyph glyph-name="one" unicode="1" horiz-adv-x="346" 
d="M75.2871 396.753c-4.60449 -8.26855 -29.6133 -5.53418 -24.6328 3.87305c25.6914 48.5635 62.833 90.7881 109.189 120.602c17.2988 11.127 38.0957 18.877 58.5977 12.0986c18.207 -6.01562 31.6045 -23.3711 39.8584 -39.9326
c12.2129 -24.5068 17.0088 -53.4756 20.2793 -80.416c3.69238 -30.4375 6.48047 -60.9248 8.57715 -91.5186c4.19238 -61.1416 5.04004 -122.592 5.51855 -183.86c0.486328 -62.4219 3.62891 -125 2.79492 -187.396c-0.411133 -30.75 -75.9424 -30.5615 -78.2021 0
c-5.02637 67.9375 -0.844727 137.038 0.708984 205.078c1.50781 66.001 4.37695 131.977 5.95215 197.978c0.556641 23.3398 15.5391 173.045 -26.5967 165.678c-13.3369 -2.33008 -28.3408 -16.0361 -38.624 -24.0947
c-11.2725 -8.83594 -21.8643 -18.498 -31.8955 -28.7139c-20.3643 -20.7432 -37.3936 -43.9941 -51.5254 -69.374z" />
    <glyph glyph-name="two" unicode="2" horiz-adv-x="413" 
d="M113.458 -63.7051c-23.0029 0.699219 -49.8633 7.23535 -60.3027 30.3018c-9.31836 20.5869 3.36621 40.5713 20.0869 52.4219c32.708 23.1807 76.0928 20.8115 112.071 6.74707c12.1455 15.5322 22.2012 32.8916 31.1152 50.3721
c39.5537 77.5645 62.1455 165.823 68.1973 252.561c2.96875 42.54 0.319336 85.7295 -11.1768 126.915c-10.7012 38.3369 -30.3311 78.3477 -76.2725 75.8857c-40.6641 -2.18164 -71.084 -33.3037 -85.8721 -69.2178c-12.1172 -29.4053 -27.6816 -101.709 12.2803 -117.447
c15.1953 -5.98438 -3.02637 -15.4795 -12.4756 -12.167c-53.5322 18.7539 -44.4805 91.9023 -27.4258 133.953c18.9062 46.6191 60.7119 79.1816 111.534 81.7002c112.403 5.57227 153.103 -133.392 155.267 -222.686c1.36914 -56.5371 -8.0127 -113.77 -23.7051 -167.983
c-15.4512 -53.3838 -37.0244 -107.083 -71.3145 -151.283c-3.64258 -4.69629 -7.52344 -9.16602 -11.5459 -13.4756c32.1191 -20.25 65.4268 -39.1914 102.973 -31.0615c13.5254 2.92676 24.8799 -11.1055 7.2334 -14.958
c-44.9131 -9.80078 -86.8359 9.31445 -124.343 32.3633c-31.9844 -27.8662 -72.6201 -44.2676 -116.324 -42.9414zM106.117 14.376c-17.6074 -8.67969 -36.1348 -40.918 -3.40234 -41.5068c13.9121 -0.251953 27.1709 6.54785 38.8164 13.3975
c11.8867 6.9873 22.3047 15.6709 31.6191 25.4355c-21.9355 9.42773 -45.002 13.5352 -67.0332 2.67383z" />
    <glyph glyph-name="three" unicode="3" horiz-adv-x="463" 
d="M75.8711 350.762c-57.8672 15.9834 -3.4707 106.509 16.8506 132.565c43.9805 56.374 142.767 108.023 205.433 48.6846c61.1797 -57.9346 15.3477 -142.994 -42.1006 -197.971c52.3018 -6.71094 100.23 -31.6367 129.086 -81.4346
c67.21 -115.986 8.56934 -290.162 -124.407 -328.942c-62.6846 -18.2783 -134.484 3.96191 -160.162 67.3516c-26.7559 66.0537 1.04297 134.396 34.5381 192.156c5.38477 9.2832 33.3779 5.76758 27.5781 -4.33496c-30.877 -53.7949 -59.6152 -119.257 -33.9521 -180.873
c10.2188 -24.5283 28.4795 -46.5557 54.4658 -54.8027c27.8799 -8.84668 57.5088 0.97168 80.5439 17.4336c39.8555 28.4863 64.1357 79.2695 71.6201 126.708c7.97363 50.5352 2.97266 103.302 -21.5908 148.825c-25.4678 47.1973 -71.5586 66.0361 -123.204 51.7021
c-15.8516 -4.40234 -35.7578 -4.78906 -49.5449 5.63574c-11.3828 8.6084 -9.65918 22.1123 3.00391 28.7451c43.9697 23.0312 82.2217 52.458 110.523 93.877c14.6104 21.3857 30.6289 46.3789 31.2744 73.1064c0.610352 25.3691 -15.6885 44.1328 -39.9971 50.2266
c-37.3613 9.36426 -80.8311 -14.4404 -107.118 -39.373c-17.249 -16.3594 -32.0439 -36.2588 -43.1143 -57.2607c-7.80762 -14.8125 -33.4922 -71.502 -7.10938 -79.7236c15.8027 -4.92383 -3.14551 -14.916 -12.6162 -12.3018z" />
    <glyph glyph-name="four" unicode="4" horiz-adv-x="450" 
d="M62.0352 21.5811c-19.8711 15.9229 -11.4619 45.3789 -0.96582 64.2773c13.0713 23.5352 34.3008 41.5508 57.6299 54.4404c16.9268 9.35352 34.9668 16.2949 53.3018 22.4209c1.0498 5.3916 2.01855 10.7227 2.8877 15.916
c19.0762 113.833 15.5645 233.182 5.86719 347.738c-0.794922 9.41016 23.7686 9.80078 24.7188 0c8.10156 -83.584 11.2832 -167.646 7.0625 -251.557c-1.68457 -33.541 -4.08594 -68.416 -10.0596 -102.443c2.17773 0.669922 4.35938 1.33984 6.53027 2.01367
c30.4912 9.45996 60.9854 18.9062 91.4795 28.3555c-4.35547 93.7637 -6.12207 188.733 0.567383 282.362c2.17773 30.4805 76.4932 30.4521 77.6494 0c3.60352 -95.0371 -0.759766 -190.255 2.62402 -285.349c1.66406 -46.8105 4.7002 -93.5928 8.69043 -140.258
c2.03613 -23.8184 4.72168 -47.5693 6.94238 -71.3672c2.20605 -23.6445 5.71387 -47.5166 0.37207 -70.9346c-4.35547 -19.1016 -39.1953 -17.9873 -48.499 -3.74219c-26.1348 40.0039 -30.292 96.3037 -36.3252 142.636
c-5.55859 42.6748 -8.88965 85.5449 -11.1318 128.507c-22.6406 -7.05469 -45.2783 -14.1064 -67.916 -21.1611c-11.5137 -3.58594 -23.208 -6.97656 -34.835 -10.6084c-5.45215 -24.5498 -13.1172 -48.4219 -24.1553 -70.7441
c-11.2871 -22.8223 -27.6533 -45.5801 -49.9502 -58.7686c-17.7676 -10.5098 -45.0088 -15.7383 -62.4854 -1.73438zM88.4707 81.542c-5.76074 -10.3506 -10.7598 -22.6025 -10.167 -34.6553c1.06445 -21.5664 19.6543 -17.6855 32.3955 -7.87109
c31.2041 24.0352 47.29 63.9502 56.7998 103.018c-8.83594 -3.45801 -17.5117 -7.25684 -25.8721 -11.7012c-21.4346 -11.3936 -41.1992 -27.3057 -53.1562 -48.79z" />
    <glyph glyph-name="five" unicode="5" horiz-adv-x="453" 
d="M173.211 -106.365c-39.9434 -0.741211 -86.7109 11.5312 -109.525 47.0479c-20.6826 32.1973 -15.6279 76.3623 -0.0527344 109.531c28.4365 60.5596 126.095 135.694 186.328 69.9912c9.91797 -10.8184 -18.3096 -15.9795 -25.4111 -8.4668
c-31.626 33.4668 -74.9609 2.75586 -100.046 -23.5674c-24.8301 -26.0566 -40.5078 -60.8252 -33.1299 -97.1934c6.43457 -31.7148 27.7314 -58.3359 61.3154 -61.6416c24.8789 -2.45117 49.0879 7.82812 69.501 21.1611c51.0039 33.3037 86.2158 96.4385 97.6338 155.264
c11.7305 60.4277 0.933594 129.191 -40.5566 176.69c-17.54 20.084 -39.7588 36.1201 -66.5107 40.6289c-26.1279 4.40527 -49.9434 -4.22852 -72.1689 -17.5303c-13.5537 -8.1084 -33.166 -8.53711 -47.8721 -3.51758c-9.64844 3.29199 -24.4541 13.0186 -18.1543 25.4297
c14.1562 27.8945 17.3916 63.6455 22.3613 94.0791c2.9834 18.2607 8.66211 36.4219 12.7412 54.5293c1.57812 7.0127 7.15723 23.9463 5.33789 27.6738c-7.17578 14.7061 24.2334 13.0957 30.4375 10.0986c9.5166 -4.59375 33.2607 -1.53613 46.8994 -0.890625
c22.7832 1.07812 45.5557 2.62793 68.3672 2.96875c21.9355 0.326172 80.2002 4.58984 88.3232 -24.8193c2.9082 -10.5352 -20.7793 -12.1523 -23.8369 -3.74609c-4.12891 11.3506 -22.3467 11.4814 -32.2852 12.2656c-19.793 1.56055 -39.8691 0.5 -59.665 -0.486328
c-24.6738 -1.23047 -50.1699 -4.00098 -75.3086 -4.10059c1.45801 -4.75977 2.49707 -9.59082 3.45117 -13.5137c4.36328 -17.9834 7.24023 -39.5713 6.56641 -57.9951c-0.645508 -17.6152 -1.46484 -36.9824 -3.96191 -56.0059
c73.9883 11.1875 153.262 -17.8242 197.905 -80.168c104.976 -146.602 -2.77734 -390.272 -188.684 -393.717z" />
    <glyph glyph-name="six" unicode="6" horiz-adv-x="377" 
d="M56.7168 36.3193c-2.9834 17.0752 -4.60547 34.5254 -5.60254 51.874c-6.59082 113.531 15.8477 236.186 71.4131 336.242c24.2764 43.7139 58.2217 92.8623 104.309 115.73c30.7891 15.2773 81.002 17.8848 95.6729 -21.0869
c3.80273 -10.1025 -20.335 -12.0283 -23.8359 -3.74609c-10.5742 25.0176 -38.3408 25.2061 -56.2256 7.7832c-15.0537 -14.667 -25.5918 -34.5586 -35.3105 -52.9824c-21.1729 -40.1279 -38.3477 -81.6182 -52.0107 -124.871
c-23.9746 -75.9004 -36.1943 -155.547 -33.7715 -235.165c15.3164 10.6943 32.2998 18.9658 50.9434 23.8037c41.4512 10.7588 89.9932 2.15039 122.389 -26.8184c70.6826 -63.209 16.6318 -183.664 -64.8799 -205.617c-46.3926 -12.4961 -99.7412 4.65723 -131.42 40.4258
c-23.2402 26.2412 -34.8955 57.8955 -41.0742 91.1426c-0.649414 0.964844 -0.875977 2.06836 -0.595703 3.28516zM262.106 105.989c-49.0352 33.4707 -101.124 12.6553 -139.348 -23.7344c2.84863 -38.6982 9.05273 -78.4756 28.3701 -112.719
c14.2666 -25.2939 42.8525 -55.1816 74.7129 -46.4307c73.4209 20.165 100.808 138.829 36.2646 182.884z" />
    <glyph glyph-name="seven" unicode="7" horiz-adv-x="381" 
d="M183.928 -63.2969c-2.37988 61.9219 9.95215 125.548 21.2568 186.214c4.2959 23.0557 8.74707 46.1367 12.9395 69.2705c-9.17676 -1.00781 -18.3389 -2.23145 -27.4834 -3.75293c-13.3691 -2.22363 -24.8867 11.833 -7.16211 14.8057
c12.4678 2.08887 24.957 3.6709 37.4609 4.84473c5.67578 32.4346 10.6699 64.9756 13.7803 97.7119c2.89453 30.4414 4.51953 61.166 3.66797 91.7451c-0.780273 27.9648 1.10645 62.4746 -12.6172 87.8115c-30.1357 55.6357 -112.812 25.7266 -157.235 9.88867
c-9.65137 -3.44043 -28 6.6123 -12.6162 12.3018c53.7705 19.8818 114.228 38.3271 168.774 10.3545c25.5215 -13.0889 44.8604 -31.6328 55.2324 -58.8643c11.9072 -31.2607 16.8799 -65.6602 19.7393 -98.7939c4.32031 -50.0781 1.18848 -100.457 -4.38086 -150.464
c8.84961 -0.408203 17.7031 -0.961914 26.5674 -1.79199c18.1787 -1.70605 6.08008 -16.2246 -7.23242 -14.958c-7.03711 0.666992 -14.0742 1.11426 -21.1084 1.46191c-1.93359 -16.0439 -4.05469 -32.0449 -6.22168 -47.9746
c-9.52734 -70.0234 -17.0469 -139.341 -22.1123 -209.811c-2.29102 -31.8955 -80.0254 -31.8633 -81.249 0z" />
    <glyph glyph-name="eight" unicode="8" horiz-adv-x="382" 
d="M50.043 356.657c-1.15625 49.9746 21.0684 105.709 60.2598 137.842c36.4814 29.9092 86.1299 46.79 133.047 36.3613c44.0049 -9.7832 73.46 -46.7793 83.4912 -89.415c11.7695 -50.0215 3.16797 -105.353 -8.91699 -154.554
c-13.1387 -53.4863 -34.2266 -104.529 -57.4316 -154.341c20.4033 -29.5859 38.1924 -61.7861 43.251 -96.3242c6.4668 -44.1328 -16.6533 -89.3438 -57.9912 -107.462c-35.5947 -15.5996 -80.1426 -7.75 -109.303 17.498
c-69.7852 60.418 -51.3154 174.354 -4.89844 244.093c-5.32812 6.62988 -10.6201 13.2842 -15.7949 20.0273c-32.9238 42.8838 -64.4219 90.3584 -65.7129 146.274zM233.462 -56.916c23.0273 13.3545 23.4619 45.7344 17.4775 68.5986
c-6.67578 25.4961 -20.7998 49.2471 -35.3359 70.9551c-21.0449 31.4346 -45.3887 60.4209 -69.3779 89.6631c-25.4756 -43.9453 -36.1133 -97.0029 -25.8447 -146.985c9.62012 -46.8389 57.4736 -114.475 113.081 -82.2314zM148.38 462.337
c-24.4287 -47.2227 -27.3633 -105.767 -7.46094 -154.904c20.1621 -49.7764 57.1689 -91.7246 89.4014 -133.971c4.50488 -5.90918 9.12012 -11.9639 13.7354 -18.1318c23.6377 51.834 44.4268 105.346 55.1074 161.429c10.7656 56.5303 17.6826 132.055 -26.7236 176.762
c-19.9697 20.1045 -49.0947 27.4043 -75.8789 17.7139c-22.6162 -8.18359 -37.4717 -28.2002 -48.1807 -48.8975z" />
    <glyph glyph-name="nine" unicode="9" horiz-adv-x="461" 
d="M392.646 391.113c10.4248 -42.4766 16.7393 -85.707 18.2783 -129.418c2.55762 -72.7441 -5.05469 -149.925 -32.4805 -217.947c-26.9688 -66.8906 -82.2002 -110.467 -155.458 -112.382c-64.4082 -1.68848 -123.553 33.665 -138 98.5518
c-13.3232 59.8389 12.1836 125.971 69.1074 152.616c6.82812 3.19238 17.2852 4.63281 23.9463 0c5.77832 -4.01855 6.34277 -9.73242 0.000976562 -13.6484c-50.7656 -31.3418 -62.2373 -108.821 -29.9658 -156.948c23.6416 -35.2617 67.001 -47.6309 102.582 -24.873
c45.1016 28.8447 63.0537 91.376 73.8975 140.481c13.6562 61.8359 17.4805 123.75 15.207 186.913c-1.14258 31.7178 -4.19629 63.4463 -8.69043 94.8633c-2.15625 15.0791 -3.69238 30.3672 -6.3457 45.3711c-1.45801 -6.16797 -2.77734 -11.9463 -4.33789 -16.3301
c-6.05469 -17.0371 -13.4824 -33.5879 -22.2012 -49.4258c-15.3691 -27.9121 -34.75 -55.0508 -58.2422 -76.7266c-38.0176 -35.084 -97.3955 -56.1465 -145.742 -28.3652c-44.4277 25.5283 -54.1465 83.6865 -34.623 128.021
c38.1064 86.5381 171.63 141.273 248.588 77.9902c1.50781 3.54688 3.10449 7.0625 4.86035 10.5244c5.18945 10.2188 23.248 8.06543 30.6299 2.2832c16.3809 -12.833 23.4678 -32.0088 30.5762 -50.9746c7.44141 -19.8604 13.3584 -39.9795 18.4131 -60.5771z
M283.392 420.371c6.62207 15.2344 11.1797 31.0918 16.3477 46.71c-81.8027 92.9053 -267.982 -29.5654 -212.779 -141.597c13.9219 -28.2529 42.4121 -42.7998 73.4141 -36.2168c30.3271 6.4375 54.7422 28.7773 74.1699 51.7588
c20.0977 23.7725 36.4502 50.8154 48.8477 79.3447z" />
    <glyph glyph-name="colon" unicode=":" horiz-adv-x="171" 
d="M72.4463 220.075c-8.53027 0.602539 -18.4814 3.7959 -20.3262 13.1279c-4.5332 22.8926 -1.29492 45.4805 5.02246 67.7246c3.47266 12.2305 26.8086 13.1211 35.9951 11.6523c10.5596 -1.69238 24.0205 -7.91016 20.4375 -20.5205
c-5.86328 -20.6514 -10.0137 -41.6572 -15.4092 -62.4111c-2.31641 -8.92773 -18.7891 -10.0625 -25.7197 -9.57324zM111.313 66.4873c3.3418 -1.96484 10.4736 -7.73242 9.2998 -12.7979c-4.43359 -19.1543 -6.7002 -41.6465 -16.8555 -58.79
c-4.73145 -7.99121 -15.3867 -10.4492 -24.0771 -10.4492c-6.93848 0 -21.4004 2.28125 -24.0781 10.4502c-6.23926 19.0371 -2.15332 39.6172 1.49707 58.7891c2.6748 14.0645 19.2148 18.1006 31.7578 18.1006c7.33887 0 16.0186 -1.51074 22.4561 -5.30273z" />
    <glyph glyph-name="semicolon" unicode=";" horiz-adv-x="208" 
d="M138.204 228.371c-5.17188 -12.9111 -42.0693 -14.8604 -46.0176 -0.00195312c-6.63281 24.9785 -4.91211 53.1816 -2.95801 78.7598c1.86621 24.415 62.7979 23.6455 61.5742 0.000976562c-1.32617 -25.5674 -2.98926 -54.7666 -12.5986 -78.7588zM90.665 81.25
c8.35352 23.9043 76.2402 18.0518 66.5918 -10.4629c-17.8418 -52.7207 -32.2539 -111.018 -60.6553 -159.134c-7.21094 -12.2197 -46.374 -15.6816 -46.5938 3.59277c-0.323242 28.2988 7.58984 55.4023 14.7412 82.5557c7.4209 28.1816 16.3066 55.9443 25.916 83.4482z
" />
    <glyph glyph-name="less" unicode="&#x3c;" horiz-adv-x="390" 
d="M321.925 126.13c12.8301 -3.95508 24.8535 -16.6094 13.2832 -28.8721c-11.9463 -12.6562 -35.3779 -12.2842 -50.6553 -7.57031c-46.0557 14.21 -92.1113 28.4229 -138.167 42.6328c-18.6084 5.74316 -119.757 24.2344 -91.4082 58.8184
c12.8613 15.6924 41.8906 23.4248 59.8604 32.4277c20.0518 10.0449 39.8584 20.5332 59.5947 31.1777c40.2168 21.6904 80.1855 45.9668 123.29 61.5244c8.84277 3.18848 40.6455 -0.770508 28.0957 -16.0156c-25.376 -30.8311 -64.7695 -52.2979 -98.793 -72.1934
c-28.6855 -16.7744 -59.4707 -30.459 -88.7451 -46.293c25.0713 -8.07715 50.9014 -14.6748 75.8057 -22.3613z" />
    <glyph glyph-name="equal" unicode="=" horiz-adv-x="370" 
d="M66.3965 234.284c-15.8594 2.79883 -24.5498 18.0576 -5.66504 24.708c34.1553 12.0312 75.415 11.1484 111.266 12.5459c37.7158 1.46875 75.4033 1.95508 113.134 0.9375c10.7158 -0.287109 35.1768 -4.25977 34.8076 -19.8389
c-0.365234 -15.2881 -23.0449 -20.0479 -34.8066 -19.8389c-36.5596 0.649414 -73.1445 1.09277 -109.708 0.510742c-35.5244 -0.564453 -73.9072 -5.22852 -109.027 0.975586zM285.131 194.488c10.7119 -0.291016 35.1768 -4.2627 34.8076 -19.8418
c-0.365234 -15.2881 -23.0449 -20.0479 -34.8066 -19.8389c-36.5596 0.649414 -73.1445 1.08887 -109.708 0.506836c-35.5244 -0.564453 -73.9072 -5.22559 -109.027 0.974609c-15.8594 2.80176 -24.5498 18.0615 -5.66504 24.7119
c34.1553 12.0352 75.415 11.1523 111.266 12.5498c37.7158 1.46875 75.4033 1.95508 113.134 0.9375z" />
    <glyph glyph-name="greater" unicode="&#x3e;" horiz-adv-x="417" 
d="M357.47 214.126c15.0791 -10.7295 10.7988 -25.75 -6.98242 -30.9043c-41.873 -12.1416 -83.3779 -24.6416 -123.57 -41.7207c-40.0322 -17.0156 -76.4932 -39.4121 -113.9 -61.2939c-14.8477 -8.68359 -38.1631 -8.66895 -52.9473 0
c-14.4795 8.48828 -12.3232 21.2969 -0.000976562 30.1787c38.3223 27.6279 82.8242 48.3887 126.181 66.7305c26.5078 11.2197 53.7959 21.0381 81.584 28.959c-7.90332 2.51172 -15.7002 4.83496 -22.4648 7.44238c-20.7822 8.0127 -41.6035 15.9189 -62.3359 24.0488
c-20.6299 8.09082 -41.1709 16.4121 -61.7549 24.6162c-19.2539 7.67578 -40.6924 14.8164 -57.0654 27.7139c-15.0684 11.8652 17.373 18.8281 24.2832 18.0049c24.6064 -2.92285 48.8613 -12.7021 72.1973 -20.6797c22.5811 -7.71484 45.1934 -15.334 67.6816 -23.3047
c23.5098 -8.33203 47.0195 -16.6602 70.5264 -24.9922c19.6826 -6.97754 41.3799 -12.5645 58.5693 -24.7988z" />
    <glyph glyph-name="question" unicode="?" horiz-adv-x="357" 
d="M302.091 423.411c16.9941 -67.2666 -13.373 -139.527 -33.4209 -202.829c-22.918 -72.3535 -37.9932 -144.597 -48.9219 -219.604c-4.27051 -29.3164 -76.7441 -29.8984 -75.9854 0c1.66016 65.376 21.2578 131.451 42.8457 192.776
c19.293 54.8027 42.8809 108.147 58.4805 164.198c12.7305 45.7432 26.2061 111.602 -28.7734 134.774c-49.9326 21.0488 -114.479 -16.0107 -133.396 -64.248c-27.4688 -70.0371 57.0615 -100.514 111.104 -81.6611c10.6592 3.71777 30.8457 -7.56934 13.876 -13.5283
c-55.1465 -19.3633 -158.735 -6.28125 -157.895 70.666c0.666992 60.8037 68.2002 105.376 123.173 110.743c60.332 5.8877 114.113 -32.7188 128.912 -91.2881zM197.05 -56.8701c6.65039 -4.35547 12.6943 -7.80176 13.8721 -16.3115
c0.886719 -6.40625 -0.149414 -13.6533 -0.447266 -20.0986c-0.624023 -13.4717 -1.66699 -26.8799 -3.11035 -40.2842c-2.94727 -27.3516 -69.8066 -27.6074 -70.165 0c-0.177734 13.4893 0.443359 26.8799 2.03906 40.2842
c0.805664 6.73926 1.79199 13.4756 3.26758 20.0977c1.97266 8.84961 7.12988 12.3008 14.9229 16.3125c11.1348 5.73242 28.5967 7.21484 39.6211 0z" />
    <glyph glyph-name="at" unicode="@" horiz-adv-x="601" 
d="M471.531 384.77c99.5771 -70.0938 98.7656 -227.255 34.0947 -320.139c-16.6465 -23.9072 -37.1592 -45.7783 -66.0996 -53.791c-26.085 -7.22168 -59.2607 -3.77344 -77.1484 18.6055c-17.2529 21.584 -13.4189 52.7842 -10.8154 78.3301
c1.74512 17.1006 3.73828 34.2539 6.18945 51.3398c-18.5586 -31.1289 -35.0811 -63.7021 -59.7549 -90.6777c-21.3037 -23.2939 -47.8818 -35.9531 -79.9619 -28.2559c-33.2256 7.9707 -46.3281 36.3828 -41.8623 68.4238c8.13379 58.3457 36.1914 127.096 90.6465 156.405
c34.8574 18.7607 105.568 25.9365 114.815 -26.8691c1.64551 -9.39648 -20.8965 -8.26855 -24.2764 -1.87305c-7.0625 13.3545 -23.624 24.542 -38.0186 15.0713c-13.8477 -9.10938 -22.1475 -27.2705 -30.4512 -41.0547
c-19.6934 -32.6865 -36.4141 -72.7471 -37.6445 -111.389c-0.297852 -9.41406 1.88672 -14.958 4.61816 -23.1514c0.0917969 0.0283203 0.148438 0.0566406 0.244141 0.0810547c1.75195 2.51855 12.6768 7.83594 14.667 9.55957
c14.5146 12.5635 26.1172 29.2529 36.4922 45.2217c19.8994 30.6289 37.8799 62.6348 62.8125 89.5996c4.34473 4.7002 29.7275 6.46973 27.2305 -4.20312c-7.53027 -32.1973 -13.1387 -64.8232 -12.167 -97.9814c0.666992 -22.8145 -1.30566 -63.1025 19.2109 -79.1641
c20.5195 -16.0645 46.626 23.8867 55.5713 38.0576c14.4258 22.8574 25.0352 48.5664 30.6504 75.0166c18.5195 87.2197 -16.6074 209.282 -116.986 225.624c-92.5332 15.0645 -181.892 -69.207 -222.517 -144.228c-46.1338 -85.1973 -57.8428 -211.956 4.46191 -293.039
c29.8379 -38.834 76.7236 -55.0439 124.599 -48.2402c51.0352 7.25391 94.8271 36.0137 135.657 65.7061c10.1094 7.34961 49.8301 -1.52832 34.209 -15.0459c-52.6426 -45.5557 -118.516 -78.4834 -189.124 -80.2002c-69.1719 -1.68457 -134.137 28.3135 -171.111 87.7061
c-67.8027 108.917 -43.7109 258.225 33.1406 355.266c78.1279 98.6582 236.572 158.168 348.628 79.2881z" />
    <glyph glyph-name="A" unicode="A" horiz-adv-x="734" 
d="M299.646 265.147c76.3545 139.127 158.742 279.186 258.643 402.947c4.37402 30.2783 81.917 29.2607 81.8535 -2.02148c-0.163086 -77.873 0.797852 -155.813 4.99023 -233.583c3.03613 -56.3418 7.43457 -112.727 13.2979 -168.969
c5.62598 -0.545898 11.2441 -1.16699 16.8486 -1.92285c31.9092 -4.31348 116.617 -16.6113 96.6084 -67.9307c-4.07227 -10.4395 -33.9141 -7.54883 -29.1826 4.58594c12.0957 31.0225 -33.6758 43.2881 -82.3984 47.7578
c7.9209 -72.0771 18.2891 -143.888 31.4805 -215.042c11.4814 -61.9326 27.3301 -124.329 53.2598 -181.938c20.9736 -46.6016 66.3057 -109.034 124.102 -75.1953c7.74316 4.5332 30.4697 -2.2207 17.8701 -10.1875c-56.7285 -35.8682 -134.147 -9.45703 -176.414 36.3926
c-46.3281 50.2549 -69.2461 121.292 -85.9707 186.146c-18.6826 72.4424 -30.6182 146.587 -40.9229 220.625c-1.9043 13.6709 -3.67773 27.373 -5.39453 41.0859c-6.27832 -0.208984 -11.2266 -0.457031 -14.3516 -0.645508
c-67.8486 -4.10352 -135.336 -15.7666 -201.301 -31.9551c-5.98438 -1.46875 -11.9434 -3.01562 -17.9062 -4.55469c-11.7412 -22.1123 -23.2832 -44.4131 -34.4922 -66.9014c22.1621 -12.7627 41.958 -29.4375 57.7031 -50.3828
c43.5693 -57.9561 51.0498 -133.622 38.4014 -203.209c-12.0674 -66.3975 -37.3018 -134.455 -79.1719 -187.963c-36.876 -47.127 -102.271 -93.9307 -163.139 -59.1865c-62.7334 35.8076 -51.2021 130.149 -40.877 189.34c13.4326 77.0146 41.3975 151.603 72.2178 223.169
c13.9473 32.3887 28.9443 64.2979 44.6152 95.8779c-20.7012 5.40918 -42.2852 7.72852 -63.6631 7.03711c-66.458 -23.5244 -132.104 -49.5 -197.562 -75.4434c-8.34277 -3.30566 -32.7363 3.95508 -18.335 13.5469c61.6484 41.0645 131.494 74.1484 206.245 78.71
c33.9316 11.9258 68.1572 23.2197 102.674 33.5381c9.92871 18.8457 20.0273 37.6025 30.2715 56.2705zM328.665 100.32c-8.5127 9.06641 -17.96 16.9844 -28.0518 23.8975c-38.9219 -79.9902 -73.0127 -162.475 -95.3271 -248.226
c-8.81445 -33.8818 -14.9619 -68.25 -17.7852 -103.149c-2.2627 -28.0039 -6.09668 -61.8145 3.67578 -88.8818c25.376 -70.2998 105.416 21.3213 124.801 51.0527c65.4082 100.312 103.752 268.326 12.6875 365.307zM248.411 168.262
c2.92969 5.7959 5.86719 11.5879 8.84277 17.3594c-12.457 -3.91211 -24.8857 -7.92773 -37.2725 -12.0674c9.55957 -1.24512 19.0586 -3.01465 28.4297 -5.29199zM503.895 259.198c23.9355 2.79199 48.083 5.00391 72.2744 6.07129
c-12.4219 104.299 -19.3135 209.608 -19.4912 314.684c-23.084 -39.0391 -46.7324 -77.7588 -69.8838 -116.78c-40.8555 -68.8594 -80.2598 -138.485 -118.558 -208.803c-3.97266 -7.2959 -7.93848 -14.6133 -11.8867 -21.9453
c48.6309 11.7129 97.8076 20.9814 147.545 26.7734z" />
    <glyph glyph-name="A" unicode="&#xc5;" horiz-adv-x="734" 
d="M299.646 265.147c76.3545 139.127 158.742 279.186 258.643 402.947c4.37402 30.2783 81.917 29.2607 81.8535 -2.02148c-0.163086 -77.873 0.797852 -155.813 4.99023 -233.583c3.03613 -56.3418 7.43457 -112.727 13.2979 -168.969
c5.62598 -0.545898 11.2441 -1.16699 16.8486 -1.92285c31.9092 -4.31348 116.617 -16.6113 96.6084 -67.9307c-4.07227 -10.4395 -33.9141 -7.54883 -29.1826 4.58594c12.0957 31.0225 -33.6758 43.2881 -82.3984 47.7578
c7.9209 -72.0771 18.2891 -143.888 31.4805 -215.042c11.4814 -61.9326 27.3301 -124.329 53.2598 -181.938c20.9736 -46.6016 66.3057 -109.034 124.102 -75.1953c7.74316 4.5332 30.4697 -2.2207 17.8701 -10.1875c-56.7285 -35.8682 -134.147 -9.45703 -176.414 36.3926
c-46.3281 50.2549 -69.2461 121.292 -85.9707 186.146c-18.6826 72.4424 -30.6182 146.587 -40.9229 220.625c-1.9043 13.6709 -3.67773 27.373 -5.39453 41.0859c-6.27832 -0.208984 -11.2266 -0.457031 -14.3516 -0.645508
c-67.8486 -4.10352 -135.336 -15.7666 -201.301 -31.9551c-5.98438 -1.46875 -11.9434 -3.01562 -17.9062 -4.55469c-11.7412 -22.1123 -23.2832 -44.4131 -34.4922 -66.9014c22.1621 -12.7627 41.958 -29.4375 57.7031 -50.3828
c43.5693 -57.9561 51.0498 -133.622 38.4014 -203.209c-12.0674 -66.3975 -37.3018 -134.455 -79.1719 -187.963c-36.876 -47.127 -102.271 -93.9307 -163.139 -59.1865c-62.7334 35.8076 -51.2021 130.149 -40.877 189.34c13.4326 77.0146 41.3975 151.603 72.2178 223.169
c13.9473 32.3887 28.9443 64.2979 44.6152 95.8779c-20.7012 5.40918 -42.2852 7.72852 -63.6631 7.03711c-66.458 -23.5244 -132.104 -49.5 -197.562 -75.4434c-8.34277 -3.30566 -32.7363 3.95508 -18.335 13.5469c61.6484 41.0645 131.494 74.1484 206.245 78.71
c33.9316 11.9258 68.1572 23.2197 102.674 33.5381c9.92871 18.8457 20.0273 37.6025 30.2715 56.2705zM328.665 100.32c-8.5127 9.06641 -17.96 16.9844 -28.0518 23.8975c-38.9219 -79.9902 -73.0127 -162.475 -95.3271 -248.226
c-8.81445 -33.8818 -14.9619 -68.25 -17.7852 -103.149c-2.2627 -28.0039 -6.09668 -61.8145 3.67578 -88.8818c25.376 -70.2998 105.416 21.3213 124.801 51.0527c65.4082 100.312 103.752 268.326 12.6875 365.307zM248.411 168.262
c2.92969 5.7959 5.86719 11.5879 8.84277 17.3594c-12.457 -3.91211 -24.8857 -7.92773 -37.2725 -12.0674c9.55957 -1.24512 19.0586 -3.01465 28.4297 -5.29199zM503.895 259.198c23.9355 2.79199 48.083 5.00391 72.2744 6.07129
c-12.4219 104.299 -19.3135 209.608 -19.4912 314.684c-23.084 -39.0391 -46.7324 -77.7588 -69.8838 -116.78c-40.8555 -68.8594 -80.2598 -138.485 -118.558 -208.803c-3.97266 -7.2959 -7.93848 -14.6133 -11.8867 -21.9453
c48.6309 11.7129 97.8076 20.9814 147.545 26.7734z" />
    <glyph glyph-name="A" unicode="&#xc4;" horiz-adv-x="734" 
d="M299.646 265.147c76.3545 139.127 158.742 279.186 258.643 402.947c4.37402 30.2783 81.917 29.2607 81.8535 -2.02148c-0.163086 -77.873 0.797852 -155.813 4.99023 -233.583c3.03613 -56.3418 7.43457 -112.727 13.2979 -168.969
c5.62598 -0.545898 11.2441 -1.16699 16.8486 -1.92285c31.9092 -4.31348 116.617 -16.6113 96.6084 -67.9307c-4.07227 -10.4395 -33.9141 -7.54883 -29.1826 4.58594c12.0957 31.0225 -33.6758 43.2881 -82.3984 47.7578
c7.9209 -72.0771 18.2891 -143.888 31.4805 -215.042c11.4814 -61.9326 27.3301 -124.329 53.2598 -181.938c20.9736 -46.6016 66.3057 -109.034 124.102 -75.1953c7.74316 4.5332 30.4697 -2.2207 17.8701 -10.1875c-56.7285 -35.8682 -134.147 -9.45703 -176.414 36.3926
c-46.3281 50.2549 -69.2461 121.292 -85.9707 186.146c-18.6826 72.4424 -30.6182 146.587 -40.9229 220.625c-1.9043 13.6709 -3.67773 27.373 -5.39453 41.0859c-6.27832 -0.208984 -11.2266 -0.457031 -14.3516 -0.645508
c-67.8486 -4.10352 -135.336 -15.7666 -201.301 -31.9551c-5.98438 -1.46875 -11.9434 -3.01562 -17.9062 -4.55469c-11.7412 -22.1123 -23.2832 -44.4131 -34.4922 -66.9014c22.1621 -12.7627 41.958 -29.4375 57.7031 -50.3828
c43.5693 -57.9561 51.0498 -133.622 38.4014 -203.209c-12.0674 -66.3975 -37.3018 -134.455 -79.1719 -187.963c-36.876 -47.127 -102.271 -93.9307 -163.139 -59.1865c-62.7334 35.8076 -51.2021 130.149 -40.877 189.34c13.4326 77.0146 41.3975 151.603 72.2178 223.169
c13.9473 32.3887 28.9443 64.2979 44.6152 95.8779c-20.7012 5.40918 -42.2852 7.72852 -63.6631 7.03711c-66.458 -23.5244 -132.104 -49.5 -197.562 -75.4434c-8.34277 -3.30566 -32.7363 3.95508 -18.335 13.5469c61.6484 41.0645 131.494 74.1484 206.245 78.71
c33.9316 11.9258 68.1572 23.2197 102.674 33.5381c9.92871 18.8457 20.0273 37.6025 30.2715 56.2705zM328.665 100.32c-8.5127 9.06641 -17.96 16.9844 -28.0518 23.8975c-38.9219 -79.9902 -73.0127 -162.475 -95.3271 -248.226
c-8.81445 -33.8818 -14.9619 -68.25 -17.7852 -103.149c-2.2627 -28.0039 -6.09668 -61.8145 3.67578 -88.8818c25.376 -70.2998 105.416 21.3213 124.801 51.0527c65.4082 100.312 103.752 268.326 12.6875 365.307zM248.411 168.262
c2.92969 5.7959 5.86719 11.5879 8.84277 17.3594c-12.457 -3.91211 -24.8857 -7.92773 -37.2725 -12.0674c9.55957 -1.24512 19.0586 -3.01465 28.4297 -5.29199zM503.895 259.198c23.9355 2.79199 48.083 5.00391 72.2744 6.07129
c-12.4219 104.299 -19.3135 209.608 -19.4912 314.684c-23.084 -39.0391 -46.7324 -77.7588 -69.8838 -116.78c-40.8555 -68.8594 -80.2598 -138.485 -118.558 -208.803c-3.97266 -7.2959 -7.93848 -14.6133 -11.8867 -21.9453
c48.6309 11.7129 97.8076 20.9814 147.545 26.7734z" />
    <glyph glyph-name="A" unicode="&#xc3;" horiz-adv-x="734" 
d="M299.646 265.147c76.3545 139.127 158.742 279.186 258.643 402.947c4.37402 30.2783 81.917 29.2607 81.8535 -2.02148c-0.163086 -77.873 0.797852 -155.813 4.99023 -233.583c3.03613 -56.3418 7.43457 -112.727 13.2979 -168.969
c5.62598 -0.545898 11.2441 -1.16699 16.8486 -1.92285c31.9092 -4.31348 116.617 -16.6113 96.6084 -67.9307c-4.07227 -10.4395 -33.9141 -7.54883 -29.1826 4.58594c12.0957 31.0225 -33.6758 43.2881 -82.3984 47.7578
c7.9209 -72.0771 18.2891 -143.888 31.4805 -215.042c11.4814 -61.9326 27.3301 -124.329 53.2598 -181.938c20.9736 -46.6016 66.3057 -109.034 124.102 -75.1953c7.74316 4.5332 30.4697 -2.2207 17.8701 -10.1875c-56.7285 -35.8682 -134.147 -9.45703 -176.414 36.3926
c-46.3281 50.2549 -69.2461 121.292 -85.9707 186.146c-18.6826 72.4424 -30.6182 146.587 -40.9229 220.625c-1.9043 13.6709 -3.67773 27.373 -5.39453 41.0859c-6.27832 -0.208984 -11.2266 -0.457031 -14.3516 -0.645508
c-67.8486 -4.10352 -135.336 -15.7666 -201.301 -31.9551c-5.98438 -1.46875 -11.9434 -3.01562 -17.9062 -4.55469c-11.7412 -22.1123 -23.2832 -44.4131 -34.4922 -66.9014c22.1621 -12.7627 41.958 -29.4375 57.7031 -50.3828
c43.5693 -57.9561 51.0498 -133.622 38.4014 -203.209c-12.0674 -66.3975 -37.3018 -134.455 -79.1719 -187.963c-36.876 -47.127 -102.271 -93.9307 -163.139 -59.1865c-62.7334 35.8076 -51.2021 130.149 -40.877 189.34c13.4326 77.0146 41.3975 151.603 72.2178 223.169
c13.9473 32.3887 28.9443 64.2979 44.6152 95.8779c-20.7012 5.40918 -42.2852 7.72852 -63.6631 7.03711c-66.458 -23.5244 -132.104 -49.5 -197.562 -75.4434c-8.34277 -3.30566 -32.7363 3.95508 -18.335 13.5469c61.6484 41.0645 131.494 74.1484 206.245 78.71
c33.9316 11.9258 68.1572 23.2197 102.674 33.5381c9.92871 18.8457 20.0273 37.6025 30.2715 56.2705zM328.665 100.32c-8.5127 9.06641 -17.96 16.9844 -28.0518 23.8975c-38.9219 -79.9902 -73.0127 -162.475 -95.3271 -248.226
c-8.81445 -33.8818 -14.9619 -68.25 -17.7852 -103.149c-2.2627 -28.0039 -6.09668 -61.8145 3.67578 -88.8818c25.376 -70.2998 105.416 21.3213 124.801 51.0527c65.4082 100.312 103.752 268.326 12.6875 365.307zM248.411 168.262
c2.92969 5.7959 5.86719 11.5879 8.84277 17.3594c-12.457 -3.91211 -24.8857 -7.92773 -37.2725 -12.0674c9.55957 -1.24512 19.0586 -3.01465 28.4297 -5.29199zM503.895 259.198c23.9355 2.79199 48.083 5.00391 72.2744 6.07129
c-12.4219 104.299 -19.3135 209.608 -19.4912 314.684c-23.084 -39.0391 -46.7324 -77.7588 -69.8838 -116.78c-40.8555 -68.8594 -80.2598 -138.485 -118.558 -208.803c-3.97266 -7.2959 -7.93848 -14.6133 -11.8867 -21.9453
c48.6309 11.7129 97.8076 20.9814 147.545 26.7734z" />
    <glyph glyph-name="A" unicode="&#xc2;" horiz-adv-x="734" 
d="M299.646 265.147c76.3545 139.127 158.742 279.186 258.643 402.947c4.37402 30.2783 81.917 29.2607 81.8535 -2.02148c-0.163086 -77.873 0.797852 -155.813 4.99023 -233.583c3.03613 -56.3418 7.43457 -112.727 13.2979 -168.969
c5.62598 -0.545898 11.2441 -1.16699 16.8486 -1.92285c31.9092 -4.31348 116.617 -16.6113 96.6084 -67.9307c-4.07227 -10.4395 -33.9141 -7.54883 -29.1826 4.58594c12.0957 31.0225 -33.6758 43.2881 -82.3984 47.7578
c7.9209 -72.0771 18.2891 -143.888 31.4805 -215.042c11.4814 -61.9326 27.3301 -124.329 53.2598 -181.938c20.9736 -46.6016 66.3057 -109.034 124.102 -75.1953c7.74316 4.5332 30.4697 -2.2207 17.8701 -10.1875c-56.7285 -35.8682 -134.147 -9.45703 -176.414 36.3926
c-46.3281 50.2549 -69.2461 121.292 -85.9707 186.146c-18.6826 72.4424 -30.6182 146.587 -40.9229 220.625c-1.9043 13.6709 -3.67773 27.373 -5.39453 41.0859c-6.27832 -0.208984 -11.2266 -0.457031 -14.3516 -0.645508
c-67.8486 -4.10352 -135.336 -15.7666 -201.301 -31.9551c-5.98438 -1.46875 -11.9434 -3.01562 -17.9062 -4.55469c-11.7412 -22.1123 -23.2832 -44.4131 -34.4922 -66.9014c22.1621 -12.7627 41.958 -29.4375 57.7031 -50.3828
c43.5693 -57.9561 51.0498 -133.622 38.4014 -203.209c-12.0674 -66.3975 -37.3018 -134.455 -79.1719 -187.963c-36.876 -47.127 -102.271 -93.9307 -163.139 -59.1865c-62.7334 35.8076 -51.2021 130.149 -40.877 189.34c13.4326 77.0146 41.3975 151.603 72.2178 223.169
c13.9473 32.3887 28.9443 64.2979 44.6152 95.8779c-20.7012 5.40918 -42.2852 7.72852 -63.6631 7.03711c-66.458 -23.5244 -132.104 -49.5 -197.562 -75.4434c-8.34277 -3.30566 -32.7363 3.95508 -18.335 13.5469c61.6484 41.0645 131.494 74.1484 206.245 78.71
c33.9316 11.9258 68.1572 23.2197 102.674 33.5381c9.92871 18.8457 20.0273 37.6025 30.2715 56.2705zM328.665 100.32c-8.5127 9.06641 -17.96 16.9844 -28.0518 23.8975c-38.9219 -79.9902 -73.0127 -162.475 -95.3271 -248.226
c-8.81445 -33.8818 -14.9619 -68.25 -17.7852 -103.149c-2.2627 -28.0039 -6.09668 -61.8145 3.67578 -88.8818c25.376 -70.2998 105.416 21.3213 124.801 51.0527c65.4082 100.312 103.752 268.326 12.6875 365.307zM248.411 168.262
c2.92969 5.7959 5.86719 11.5879 8.84277 17.3594c-12.457 -3.91211 -24.8857 -7.92773 -37.2725 -12.0674c9.55957 -1.24512 19.0586 -3.01465 28.4297 -5.29199zM503.895 259.198c23.9355 2.79199 48.083 5.00391 72.2744 6.07129
c-12.4219 104.299 -19.3135 209.608 -19.4912 314.684c-23.084 -39.0391 -46.7324 -77.7588 -69.8838 -116.78c-40.8555 -68.8594 -80.2598 -138.485 -118.558 -208.803c-3.97266 -7.2959 -7.93848 -14.6133 -11.8867 -21.9453
c48.6309 11.7129 97.8076 20.9814 147.545 26.7734z" />
    <glyph glyph-name="A" unicode="&#xc1;" horiz-adv-x="734" 
d="M299.646 265.147c76.3545 139.127 158.742 279.186 258.643 402.947c4.37402 30.2783 81.917 29.2607 81.8535 -2.02148c-0.163086 -77.873 0.797852 -155.813 4.99023 -233.583c3.03613 -56.3418 7.43457 -112.727 13.2979 -168.969
c5.62598 -0.545898 11.2441 -1.16699 16.8486 -1.92285c31.9092 -4.31348 116.617 -16.6113 96.6084 -67.9307c-4.07227 -10.4395 -33.9141 -7.54883 -29.1826 4.58594c12.0957 31.0225 -33.6758 43.2881 -82.3984 47.7578
c7.9209 -72.0771 18.2891 -143.888 31.4805 -215.042c11.4814 -61.9326 27.3301 -124.329 53.2598 -181.938c20.9736 -46.6016 66.3057 -109.034 124.102 -75.1953c7.74316 4.5332 30.4697 -2.2207 17.8701 -10.1875c-56.7285 -35.8682 -134.147 -9.45703 -176.414 36.3926
c-46.3281 50.2549 -69.2461 121.292 -85.9707 186.146c-18.6826 72.4424 -30.6182 146.587 -40.9229 220.625c-1.9043 13.6709 -3.67773 27.373 -5.39453 41.0859c-6.27832 -0.208984 -11.2266 -0.457031 -14.3516 -0.645508
c-67.8486 -4.10352 -135.336 -15.7666 -201.301 -31.9551c-5.98438 -1.46875 -11.9434 -3.01562 -17.9062 -4.55469c-11.7412 -22.1123 -23.2832 -44.4131 -34.4922 -66.9014c22.1621 -12.7627 41.958 -29.4375 57.7031 -50.3828
c43.5693 -57.9561 51.0498 -133.622 38.4014 -203.209c-12.0674 -66.3975 -37.3018 -134.455 -79.1719 -187.963c-36.876 -47.127 -102.271 -93.9307 -163.139 -59.1865c-62.7334 35.8076 -51.2021 130.149 -40.877 189.34c13.4326 77.0146 41.3975 151.603 72.2178 223.169
c13.9473 32.3887 28.9443 64.2979 44.6152 95.8779c-20.7012 5.40918 -42.2852 7.72852 -63.6631 7.03711c-66.458 -23.5244 -132.104 -49.5 -197.562 -75.4434c-8.34277 -3.30566 -32.7363 3.95508 -18.335 13.5469c61.6484 41.0645 131.494 74.1484 206.245 78.71
c33.9316 11.9258 68.1572 23.2197 102.674 33.5381c9.92871 18.8457 20.0273 37.6025 30.2715 56.2705zM328.665 100.32c-8.5127 9.06641 -17.96 16.9844 -28.0518 23.8975c-38.9219 -79.9902 -73.0127 -162.475 -95.3271 -248.226
c-8.81445 -33.8818 -14.9619 -68.25 -17.7852 -103.149c-2.2627 -28.0039 -6.09668 -61.8145 3.67578 -88.8818c25.376 -70.2998 105.416 21.3213 124.801 51.0527c65.4082 100.312 103.752 268.326 12.6875 365.307zM248.411 168.262
c2.92969 5.7959 5.86719 11.5879 8.84277 17.3594c-12.457 -3.91211 -24.8857 -7.92773 -37.2725 -12.0674c9.55957 -1.24512 19.0586 -3.01465 28.4297 -5.29199zM503.895 259.198c23.9355 2.79199 48.083 5.00391 72.2744 6.07129
c-12.4219 104.299 -19.3135 209.608 -19.4912 314.684c-23.084 -39.0391 -46.7324 -77.7588 -69.8838 -116.78c-40.8555 -68.8594 -80.2598 -138.485 -118.558 -208.803c-3.97266 -7.2959 -7.93848 -14.6133 -11.8867 -21.9453
c48.6309 11.7129 97.8076 20.9814 147.545 26.7734z" />
    <glyph glyph-name="B" unicode="B" horiz-adv-x="820" 
d="M126.543 288.417c-0.0673828 1.83398 -0.150391 3.66211 -0.228516 5.50293c-4.17188 116.11 -3.88086 232.451 2.03906 348.487c1.51465 29.6641 74.7334 29.501 75.4326 0c2.59668 -109.399 0.645508 -218.831 2.99707 -328.205
c13.1104 4.78516 26.1035 9.87891 39.0186 15.1748c2.85547 13.0498 5.91699 26.0498 9.26855 38.9688c32.7393 126.227 98.0664 250.073 200.794 333.093c48.123 38.8936 113.709 74.1553 177.482 57.5654c66.6533 -17.3418 68.7891 -88.8018 46.2402 -142.32
c-25.457 -60.4277 -74.5449 -110.275 -122.811 -153.259c-49.8047 -44.3525 -105.359 -82.9521 -163.29 -115.876c-11.6914 -6.64355 -23.5566 -12.9854 -35.5107 -19.168c56.7783 5.06152 113.89 4.1748 171.53 -7.33594
c65.9336 -13.1631 139.152 -38.6699 181.281 -94.3809c33.499 -44.2998 31.7539 -95.1504 14.0225 -142.597c41.7314 5.79199 83.8066 9.27539 126.014 10.2402c17.3135 0.397461 17.0615 -15.7344 0 -16.1426c-44.7217 -1.06445 -89.3223 -5.06934 -133.462 -11.9189
c-5.51953 -11.9395 -11.9326 -23.5664 -18.9199 -34.7188c-71.3389 -113.865 -191.291 -191.1 -322.001 -217.986c-29.8525 -6.14355 -63.8408 -12.1953 -94.0869 -5.93164c-13.3086 2.75977 -24.2158 8.67676 -31.126 16.9561
c-1.07129 -5.6084 -3.6709 -10.6484 -9.1543 -14.6279c-9.29004 -6.73926 -28.0508 -4.41602 -36.7197 2.5332c-10.8506 8.69727 -15.6426 27.752 -19.5371 40.5996c-9.15527 30.2139 -15.998 61.2402 -22.2656 92.1641c-19.6504 96.9424 -29.6357 195.378 -34.8037 294.058
c-40.6953 -9.30371 -81.4443 -18.0576 -122.506 -24.123c-13.5566 -2.00391 -41.7842 -0.571289 -48.0518 15.5498c-6.37793 16.4092 14.4111 25.4404 27.2832 27.3916c6.11133 0.925781 12.2021 1.95117 18.2959 2.96875c12.7939 2.1709 25.5879 4.54785 38.3789 7.05957
c28.4082 5.71094 56.5615 12.4678 84.3955 20.2783zM208.451 257.619c0.545898 -14.5645 1.1709 -29.125 1.94434 -43.6826c1.75977 -33.0449 4.01562 -66.0361 6.78906 -98.9814c3.26367 49.418 8.30371 99.0137 16.1426 148.105
c-8.29688 -1.7666 -16.5898 -3.58594 -24.876 -5.44141zM561.558 -34.5186c24.0176 24.127 47.4141 52.1504 65.6885 82.6309c-75.8867 -18.8281 -149.62 -46.2969 -219.316 -82.1475c-26.7207 -13.7451 -53.0547 -29.0186 -76.2383 -48.2549
c-15.9766 -13.252 -62.7197 -52.7061 -44.8066 -76.9863c6.88867 -9.34277 20.3994 -5.82715 30.0293 -4.2666c12.4004 2.01074 24.7266 4.52246 36.8857 7.68652c25.5527 6.64355 50.7373 15.458 74.5635 26.8584c49.7129 23.7939 94.3145 55.4229 133.194 94.4795z
M655.552 111.839c38.4004 135.942 -140.669 174.944 -237.816 174.568c-51.7197 -0.202148 -102.606 -7.21094 -153.152 -16.9795c-13.3086 -67.7881 -18.668 -137.336 -22.1084 -206.217c-2.08203 -41.7314 -5.28906 -84.7324 -4.61133 -127.308
c1.64941 -11.4639 3.31641 -22.9277 4.99805 -34.3955c1.67773 -11.4502 3.65723 -22.9004 5.35254 -34.375c0.0849609 0.180664 0.141602 0.354492 0.230469 0.535156c13.9473 28.5293 42.877 52.1709 68.1709 70.2686c28.6924 20.5342 60.3789 36.7588 92.1719 51.8906
c73.4072 34.9277 150.574 61.1797 229.699 78.709c7.03711 14.0498 12.8867 28.5146 17.0654 43.3027zM417.21 616.126c-64.752 -78.3447 -107.561 -173.011 -134.728 -270.936c29.7031 13.5215 58.8389 28.4189 87.2686 44.8174
c53.4297 30.8174 103.422 66.6787 150.091 106.988c45.7715 39.5361 92.1387 84.0449 115.989 140.77c10.7588 25.5781 21.418 62.3545 1.12109 86.1055c-18.1611 21.2539 -48.7939 16.1924 -72.1484 8.17285c-59.1934 -20.3281 -108.48 -68.5967 -147.594 -115.918z" />
    <glyph glyph-name="C" unicode="C" horiz-adv-x="560" 
d="M-27.666 25.3613c-9.35059 104.784 1.08594 211.859 29.8242 313.005c27.2344 95.8389 73.0127 197.474 146.086 267.348c67.8271 64.8652 177.829 95.6465 263.204 45.1357c86.1123 -50.9473 87.9209 -179.962 70.0078 -266.571
c-18.9766 -91.7627 -73.2432 -184.303 -156.78 -231.152c-37.1768 -20.8467 -87.1162 -36.7344 -128.943 -20.7373c-40.1748 15.3662 -54.1074 58.9102 -54.7207 98.5947c-0.734375 47.3711 12.7266 100.783 42.3125 138.574
c20.0264 25.582 72.2217 41.3135 89.0986 2.94434c4.54004 -10.3223 -21.4883 -12.9121 -25.4395 -3.99805c-16.0645 36.2441 -48.2822 -17.4482 -55.4258 -32.041c-11.0205 -22.5166 -18.4053 -46.708 -21.6123 -71.584
c-5.05469 -39.21 -3.50488 -104.313 42.3018 -120.045c44.2324 -15.1885 97.999 20.5166 128.085 49.6279c32.6689 31.6084 56.1934 71.46 72.4033 113.709c29.9902 78.1641 40.9795 173.102 9.64062 252.748c-13.624 34.623 -38.9219 63.6738 -76.1162 72.6621
c-29.2568 7.06934 -61.0244 -0.0634766 -86.9639 -14.3018c-70.2002 -38.5322 -114.244 -115.504 -146.381 -186.017c-36.5703 -80.2461 -57.7744 -166.607 -65.4756 -254.345c-7.57324 -86.2832 -6.24316 -179.731 16.916 -263.701
c17.6465 -63.9756 59.1973 -159.619 136.956 -165.419c44.4277 -3.3125 90.9834 21.3076 126.94 44.8994c34.5771 22.6875 64.0957 53.3877 91.1709 84.4033c61.2441 70.1611 112.798 148.729 155.114 231.597c4.5293 8.875 30.7002 5.90234 25.7061 -4.04004
c-12.585 -25.0527 -25.9326 -49.7051 -40.2383 -73.8252c-52.6924 -88.8408 -116.132 -174.305 -196.211 -240.238c-77 -63.4004 -184.14 -103.011 -272.835 -37.9072c-84.0693 61.709 -109.846 172.304 -118.625 270.675z" />
    <glyph glyph-name="D" unicode="D" horiz-adv-x="754" 
d="M94.1963 228.964c-57.9629 -0.954102 -109.854 26.5498 -124.915 85.5303c-14.915 58.4102 11.4258 120.945 44.1729 168.594c62.1553 90.4297 164.244 146.903 269.312 171.999c107.388 25.6523 238.269 21.9346 325.708 -53.9131
c106.427 -92.3164 104.164 -244.408 74.1201 -370.418c-12.2627 -51.4219 -29.3242 -101.794 -51.4121 -149.719c15.8027 -0.766602 31.6152 -1.21387 47.3926 -0.987305c31.7852 0.454102 64.1592 5.27832 89.1377 26.458
c7.87109 6.67188 35.7266 0.584961 25.1738 -8.38965c-17.7705 -15.1143 -38.3262 -24.3613 -61.0635 -29.3486c-35.0703 -7.69727 -72.1377 -7.23633 -108.793 -4.83496c-30.5508 -61.9893 -69.8809 -119.448 -119.051 -168.969
c-87.4219 -88.0527 -214.276 -159.157 -341.482 -156.057c-61.3154 1.49316 -126.976 22.5273 -160.57 77.4189c-30.2422 49.4141 -18.8242 113.645 13.3652 159.026c31.9521 45.0479 81.9482 72.7188 133.346 90.5713c-1.7666 28.6074 -2.91602 57.2539 -3.62891 85.9072
c-0.688477 27.6533 -0.905273 55.3096 -0.707031 82.959c-16.4229 -3.5332 -33.1895 -5.54785 -50.1055 -5.82812zM470.094 -47.5527c30.4199 35.9209 55.9463 75.54 77.4561 117.354c-57.8848 4.3877 -115.776 9.37891 -173.853 9.97168
c-49.1055 0.5 -98.5908 -2.3125 -146.753 -12.0986c0.542969 -14.9512 1.12793 -29.8984 1.7666 -44.8457c1.78027 -41.7031 9.80762 -87.3721 2.41895 -128.586c-3.73828 -20.8672 -49.5596 -23.5273 -57.4805 -4.43359c-16.8486 40.6211 -18.0049 89.5889 -21.8574 133.02
c-0.652344 7.36035 -1.17773 14.7275 -1.72363 22.0947c-40.8408 -16.625 -79.2773 -41.4863 -101.716 -79.873c-28.0859 -48.0527 -26.4258 -106.498 15.6211 -145.665c40.8408 -38.043 93.7207 -42.8916 146.37 -32.1865c102.234 20.7861 193.349 86.8438 259.75 165.249z
M26.3545 459.568c-28.6885 -48.8467 -49.9375 -112.486 -22.4551 -166.431c27.2559 -53.4932 88.7129 -55.7207 140.515 -42.2812c0.766602 55.3916 3.46191 110.74 8.52051 165.933c2.9834 32.5342 84.1084 31.1299 81.8066 0.000976562
c-3.14648 -42.5508 -5.71777 -85.1475 -7.46289 -127.776c58.8887 40.5146 102.117 103.915 115.152 174.541c1.86621 10.1162 26.9229 9.03125 25.2734 0c-4.63965 -25.3799 -12.4365 -49.9082 -23.9395 -73.0391c-25.5635 -51.3975 -67.3447 -94.8809 -117.291 -123.762
c-1.25879 -37.127 -1.89062 -74.2754 -1.625 -111.438c0.166992 -23.0664 0.709961 -46.126 1.44727 -69.1787c45.2998 8.24707 91.5684 11.1631 137.609 10.9932c64.0742 -0.234375 127.911 -6.2041 191.763 -11.0605c26.7344 55.3311 46.7295 114.124 61.5 173.286
c27.2666 109.219 36.627 249.588 -51.7988 335.215c-78.6035 76.1133 -203.039 68.3135 -300.314 39.1143c-95.6787 -28.7207 -187.222 -86.457 -238.7 -174.116z" />
    <glyph glyph-name="E" unicode="E" horiz-adv-x="652" 
d="M52.3643 459.819c71.1904 77.1494 169.502 134.271 273.669 151.356c50.3223 8.25391 112.027 6.27832 152.279 -29.4658c41.1494 -36.5381 26.3369 -94.2842 0.65918 -135.338c-26.4082 -42.2285 -68.25 -77.667 -116.331 -92.3555
c-42.9443 -13.1172 -109.711 -6.99512 -123.545 44.9551c-5.25 19.7109 39.7168 22.8711 44.4131 6.97656c18.5977 -62.9434 93.2959 -15.0645 121.743 13.0566c31.5234 31.1611 71.1445 93.835 40.6963 137.27c-26.9717 38.4756 -85.623 32.2471 -124.825 22.4824
c-42.998 -10.7119 -83.7754 -29.7422 -120.871 -53.8057c-36.7119 -23.8115 -69.4902 -53.5146 -97.1113 -87.4355c-30.3174 -37.2373 -59.7295 -83.4736 -64.3193 -132.296c-4.19238 -44.6113 12.71 -86.5986 53.75 -107.654
c36.8398 -18.9023 82.3096 -19.7998 122.611 -16.5469c15.4297 1.24512 30.7852 3.31348 46.041 6.0166c59.917 45.8213 126.971 84.0449 196.721 106.396c25 8.0127 64.6709 21.0908 87.2197 0.411133c21.4844 -19.7041 -11.6025 -44.8428 -26.3154 -56.3145
c-44.1934 -34.4639 -97.0127 -54.3174 -150.216 -70.3223c-29.0684 -8.74316 -58.6904 -16.2061 -88.6494 -21.5762c-4.43359 -3.48633 -8.83594 -7.01953 -13.1914 -10.6094c-63.2158 -52.0781 -128.695 -116.578 -158.133 -194.742
c-12 -31.8633 -18.2744 -78.9258 17.1436 -98.665c30.792 -17.1611 74.9355 -6.9668 107.235 -0.347656c87.3398 17.8955 168.479 58.3252 242.567 106.92c72.2617 47.3994 139.752 102.546 193.125 170.977c4.86328 6.23926 28.3984 2.125 22.8438 -5.4873
c-15.834 -21.7051 -32.8457 -42.4062 -51.6953 -61.5742c-77.9121 -79.2314 -177.135 -145.821 -277.979 -192.104c-51.0918 -23.4463 -104.834 -41.0186 -160.736 -48.2119c-43.335 -5.5791 -99.4531 -5.53613 -130.455 30.8955
c-33.499 39.3691 -16.877 95.4238 3.82422 136.612c24.709 49.1699 60.875 92.3525 99.5166 131.15c8.93164 8.9707 18.165 17.835 27.6504 26.5605c-7.67578 -0.269531 -15.3623 -0.365234 -23.0596 -0.254883c-53.543 0.773438 -112.201 9.20117 -157.022 40.8018
c-45.6084 32.1543 -65.1211 84.7578 -53.1816 139.351c11.9111 54.458 46.6758 102.546 83.9277 142.919z" />
    <glyph glyph-name="E" unicode="&#xcb;" horiz-adv-x="652" 
d="M52.3643 459.819c71.1904 77.1494 169.502 134.271 273.669 151.356c50.3223 8.25391 112.027 6.27832 152.279 -29.4658c41.1494 -36.5381 26.3369 -94.2842 0.65918 -135.338c-26.4082 -42.2285 -68.25 -77.667 -116.331 -92.3555
c-42.9443 -13.1172 -109.711 -6.99512 -123.545 44.9551c-5.25 19.7109 39.7168 22.8711 44.4131 6.97656c18.5977 -62.9434 93.2959 -15.0645 121.743 13.0566c31.5234 31.1611 71.1445 93.835 40.6963 137.27c-26.9717 38.4756 -85.623 32.2471 -124.825 22.4824
c-42.998 -10.7119 -83.7754 -29.7422 -120.871 -53.8057c-36.7119 -23.8115 -69.4902 -53.5146 -97.1113 -87.4355c-30.3174 -37.2373 -59.7295 -83.4736 -64.3193 -132.296c-4.19238 -44.6113 12.71 -86.5986 53.75 -107.654
c36.8398 -18.9023 82.3096 -19.7998 122.611 -16.5469c15.4297 1.24512 30.7852 3.31348 46.041 6.0166c59.917 45.8213 126.971 84.0449 196.721 106.396c25 8.0127 64.6709 21.0908 87.2197 0.411133c21.4844 -19.7041 -11.6025 -44.8428 -26.3154 -56.3145
c-44.1934 -34.4639 -97.0127 -54.3174 -150.216 -70.3223c-29.0684 -8.74316 -58.6904 -16.2061 -88.6494 -21.5762c-4.43359 -3.48633 -8.83594 -7.01953 -13.1914 -10.6094c-63.2158 -52.0781 -128.695 -116.578 -158.133 -194.742
c-12 -31.8633 -18.2744 -78.9258 17.1436 -98.665c30.792 -17.1611 74.9355 -6.9668 107.235 -0.347656c87.3398 17.8955 168.479 58.3252 242.567 106.92c72.2617 47.3994 139.752 102.546 193.125 170.977c4.86328 6.23926 28.3984 2.125 22.8438 -5.4873
c-15.834 -21.7051 -32.8457 -42.4062 -51.6953 -61.5742c-77.9121 -79.2314 -177.135 -145.821 -277.979 -192.104c-51.0918 -23.4463 -104.834 -41.0186 -160.736 -48.2119c-43.335 -5.5791 -99.4531 -5.53613 -130.455 30.8955
c-33.499 39.3691 -16.877 95.4238 3.82422 136.612c24.709 49.1699 60.875 92.3525 99.5166 131.15c8.93164 8.9707 18.165 17.835 27.6504 26.5605c-7.67578 -0.269531 -15.3623 -0.365234 -23.0596 -0.254883c-53.543 0.773438 -112.201 9.20117 -157.022 40.8018
c-45.6084 32.1543 -65.1211 84.7578 -53.1816 139.351c11.9111 54.458 46.6758 102.546 83.9277 142.919z" />
    <glyph glyph-name="E" unicode="&#xca;" horiz-adv-x="652" 
d="M52.3643 459.819c71.1904 77.1494 169.502 134.271 273.669 151.356c50.3223 8.25391 112.027 6.27832 152.279 -29.4658c41.1494 -36.5381 26.3369 -94.2842 0.65918 -135.338c-26.4082 -42.2285 -68.25 -77.667 -116.331 -92.3555
c-42.9443 -13.1172 -109.711 -6.99512 -123.545 44.9551c-5.25 19.7109 39.7168 22.8711 44.4131 6.97656c18.5977 -62.9434 93.2959 -15.0645 121.743 13.0566c31.5234 31.1611 71.1445 93.835 40.6963 137.27c-26.9717 38.4756 -85.623 32.2471 -124.825 22.4824
c-42.998 -10.7119 -83.7754 -29.7422 -120.871 -53.8057c-36.7119 -23.8115 -69.4902 -53.5146 -97.1113 -87.4355c-30.3174 -37.2373 -59.7295 -83.4736 -64.3193 -132.296c-4.19238 -44.6113 12.71 -86.5986 53.75 -107.654
c36.8398 -18.9023 82.3096 -19.7998 122.611 -16.5469c15.4297 1.24512 30.7852 3.31348 46.041 6.0166c59.917 45.8213 126.971 84.0449 196.721 106.396c25 8.0127 64.6709 21.0908 87.2197 0.411133c21.4844 -19.7041 -11.6025 -44.8428 -26.3154 -56.3145
c-44.1934 -34.4639 -97.0127 -54.3174 -150.216 -70.3223c-29.0684 -8.74316 -58.6904 -16.2061 -88.6494 -21.5762c-4.43359 -3.48633 -8.83594 -7.01953 -13.1914 -10.6094c-63.2158 -52.0781 -128.695 -116.578 -158.133 -194.742
c-12 -31.8633 -18.2744 -78.9258 17.1436 -98.665c30.792 -17.1611 74.9355 -6.9668 107.235 -0.347656c87.3398 17.8955 168.479 58.3252 242.567 106.92c72.2617 47.3994 139.752 102.546 193.125 170.977c4.86328 6.23926 28.3984 2.125 22.8438 -5.4873
c-15.834 -21.7051 -32.8457 -42.4062 -51.6953 -61.5742c-77.9121 -79.2314 -177.135 -145.821 -277.979 -192.104c-51.0918 -23.4463 -104.834 -41.0186 -160.736 -48.2119c-43.335 -5.5791 -99.4531 -5.53613 -130.455 30.8955
c-33.499 39.3691 -16.877 95.4238 3.82422 136.612c24.709 49.1699 60.875 92.3525 99.5166 131.15c8.93164 8.9707 18.165 17.835 27.6504 26.5605c-7.67578 -0.269531 -15.3623 -0.365234 -23.0596 -0.254883c-53.543 0.773438 -112.201 9.20117 -157.022 40.8018
c-45.6084 32.1543 -65.1211 84.7578 -53.1816 139.351c11.9111 54.458 46.6758 102.546 83.9277 142.919z" />
    <glyph glyph-name="E" unicode="&#xc9;" horiz-adv-x="652" 
d="M52.3643 459.819c71.1904 77.1494 169.502 134.271 273.669 151.356c50.3223 8.25391 112.027 6.27832 152.279 -29.4658c41.1494 -36.5381 26.3369 -94.2842 0.65918 -135.338c-26.4082 -42.2285 -68.25 -77.667 -116.331 -92.3555
c-42.9443 -13.1172 -109.711 -6.99512 -123.545 44.9551c-5.25 19.7109 39.7168 22.8711 44.4131 6.97656c18.5977 -62.9434 93.2959 -15.0645 121.743 13.0566c31.5234 31.1611 71.1445 93.835 40.6963 137.27c-26.9717 38.4756 -85.623 32.2471 -124.825 22.4824
c-42.998 -10.7119 -83.7754 -29.7422 -120.871 -53.8057c-36.7119 -23.8115 -69.4902 -53.5146 -97.1113 -87.4355c-30.3174 -37.2373 -59.7295 -83.4736 -64.3193 -132.296c-4.19238 -44.6113 12.71 -86.5986 53.75 -107.654
c36.8398 -18.9023 82.3096 -19.7998 122.611 -16.5469c15.4297 1.24512 30.7852 3.31348 46.041 6.0166c59.917 45.8213 126.971 84.0449 196.721 106.396c25 8.0127 64.6709 21.0908 87.2197 0.411133c21.4844 -19.7041 -11.6025 -44.8428 -26.3154 -56.3145
c-44.1934 -34.4639 -97.0127 -54.3174 -150.216 -70.3223c-29.0684 -8.74316 -58.6904 -16.2061 -88.6494 -21.5762c-4.43359 -3.48633 -8.83594 -7.01953 -13.1914 -10.6094c-63.2158 -52.0781 -128.695 -116.578 -158.133 -194.742
c-12 -31.8633 -18.2744 -78.9258 17.1436 -98.665c30.792 -17.1611 74.9355 -6.9668 107.235 -0.347656c87.3398 17.8955 168.479 58.3252 242.567 106.92c72.2617 47.3994 139.752 102.546 193.125 170.977c4.86328 6.23926 28.3984 2.125 22.8438 -5.4873
c-15.834 -21.7051 -32.8457 -42.4062 -51.6953 -61.5742c-77.9121 -79.2314 -177.135 -145.821 -277.979 -192.104c-51.0918 -23.4463 -104.834 -41.0186 -160.736 -48.2119c-43.335 -5.5791 -99.4531 -5.53613 -130.455 30.8955
c-33.499 39.3691 -16.877 95.4238 3.82422 136.612c24.709 49.1699 60.875 92.3525 99.5166 131.15c8.93164 8.9707 18.165 17.835 27.6504 26.5605c-7.67578 -0.269531 -15.3623 -0.365234 -23.0596 -0.254883c-53.543 0.773438 -112.201 9.20117 -157.022 40.8018
c-45.6084 32.1543 -65.1211 84.7578 -53.1816 139.351c11.9111 54.458 46.6758 102.546 83.9277 142.919z" />
    <glyph glyph-name="F" unicode="F" horiz-adv-x="662" 
d="M466.853 676.248c57.9199 22.1055 117.604 39.2461 177.99 50.2744c69.7178 12.7344 151.255 18.041 218.252 -9.71094c24.3398 -10.0811 48.9033 -26.5713 58.2959 -52.4082c12.1914 -33.5449 -3.2666 -68.1855 -19.4199 -97.4062
c-8.73633 -15.8096 -55.792 -9.91797 -46.2822 7.27148c17.1572 31.0117 36.1416 73.0088 6.75781 103.074c-22.2754 22.79 -59.6543 27.8662 -89.751 30.3672c-79.4688 6.60156 -159.821 -14.2627 -234.668 -39c-23.875 -7.88867 -47.4805 -16.6182 -70.7744 -26.1318
c-3.87695 -59.4629 -7.63379 -118.905 -9.94629 -178.468c-2.125 -54.7246 -2.81348 -109.517 -2.14355 -164.287c32.9385 10.666 66.8486 20.8496 101.263 24.248c15.6709 1.54688 32.5088 3.01172 47.2793 -3.49707c9.77246 -4.30664 20.9951 -13.2812 13.9189 -24.5859
c-6.62988 -10.585 -38.9434 -13.5469 -40.0645 3.09277c-0.641602 9.53809 -74.1084 -9.50293 -122.037 -23.1875c1.13867 -57.2178 3.80273 -114.404 8.17285 -171.463c0.49707 -6.48047 1.11035 -12.9541 1.65625 -19.4346
c17.1611 -8.19727 32.9668 -19.0977 44.626 -34.3506c17.7314 -23.1943 22.5273 -53.0254 24.4531 -81.4268c4.81348 -71.041 -6.04102 -142.405 -29.7607 -209.42c-0.251953 -0.708984 -0.673828 -1.32617 -1.16699 -1.90039
c-0.0888672 -0.333008 -0.145508 -0.676758 -0.237305 -1.00977c-3.90137 -14.1533 -31.3096 -10.5996 -40.209 -6.05273c-14.9648 7.64355 -19.1611 25.7021 -23.9248 40.6924c-5.16504 16.2461 -9.2832 32.7471 -13.2627 49.3154
c-7.86426 32.7393 -14.6992 65.582 -20.4912 98.7549c-8.81055 50.4609 -15.5322 101.276 -20.498 152.276c-36.2939 8.02344 -73.2861 12.0283 -110.304 15.6143c-74.3857 7.21094 -151.957 13.3867 -222.927 38.4219c-27.0674 9.54883 -55.1572 23.5352 -73.5449 46.2725
c-19.6475 24.2939 -20.9561 52.6455 -11.0596 81.5615c22.2012 64.8691 72.0166 119.828 121.094 165.891c50.6484 47.5342 105.937 90.2871 164.357 127.837c43.2812 27.8193 88.8223 53.1318 135.945 75.3369c0.886719 8.24023 1.80859 16.4727 2.78027 24.7021
c3.2168 27.1992 63.7549 29.5791 75.6309 8.73633zM495.1 24.2207c-6.25684 15.0146 -15.9248 26.3896 -27.5801 35.3213c4.18164 -44.5586 9.49121 -89.0352 15.7803 -133.324c4.26367 -30.0225 8.71191 -60.0557 13.6357 -89.9785
c0.188477 -1.13477 0.394531 -2.29102 0.600586 -3.44727c4.25977 21.0908 7.23242 42.4443 8.73242 64.0107c2.83789 40.7627 4.85645 88.9639 -11.1689 127.418zM373.688 300.992c-1.34473 101.233 1.72754 202.872 10.9717 303.805
c-68.1074 -34.5596 -132.696 -76.0889 -192.159 -123.9c-49.9746 -40.1846 -99.7686 -84.3711 -137.456 -136.634c-18.7432 -25.9932 -38.082 -56.6895 -45.2617 -88.2695c-7.06934 -31.1152 7.77832 -56.1826 33.7041 -72.6162
c25.5781 -16.2139 56.3672 -23.9219 85.6055 -30.4453c35.2188 -7.85645 70.9131 -13.2656 106.653 -18.1221c48.709 -6.61523 98.833 -12.8545 147.368 -23.918c-4.0791 45.9707 -6.75684 92.0723 -8.23633 138.185c-41.2705 -15.9658 -81.4697 -34.4424 -120.676 -55.1465
c-8.31445 -4.39453 -32.4492 3.2002 -18.8496 10.7451c44.8174 24.8613 91.2803 46.9629 138.921 66.0391c-0.241211 10.0947 -0.450195 20.1865 -0.584961 30.2783z" />
    <glyph glyph-name="G" unicode="G" horiz-adv-x="517" 
d="M341.842 53.4287c9.02051 84.7363 -4.62988 169.635 -4.40625 254.347c-26.3154 -43.6826 -56.377 -85.6836 -91.3262 -121.932c-45.6689 -47.3643 -110.08 -88.3115 -178.511 -73.8145c-147.971 31.3496 -100.167 230.849 -60.1309 328.489
c24.0957 58.7686 58.3467 113.496 99.2695 162.006c41.2637 48.9141 94.4277 94.7314 159.212 106.437c30.7607 5.55859 65.3516 2.3623 92.0293 -15.0186c24.3223 -15.8447 34.4385 -41.7705 37.1768 -69.7432c5.30957 -54.207 -15.4404 -110.808 -48.127 -153.323
c-17.4619 -22.7119 -39.7656 -43.1357 -65.166 -56.6748c-21.8574 -11.6523 -56.2178 -23.1377 -79.4795 -8.92773c-46.9639 28.6885 37.3896 105.267 59.4844 123.942c7.93164 6.7041 35.0029 0.113281 24.6953 -8.22559
c-22.5205 -18.2217 -42.2744 -38.9756 -57.4209 -63.8018c-4.19629 -6.87402 -16.1602 -26.752 -6.42383 -33.3672c8.48438 -5.76758 31.459 9.75488 38.1982 14.1992c41.6143 27.4648 70.874 73.4639 81.1289 121.96c7.2959 34.5234 9.60547 99.5098 -34.79 110.726
c-19.6895 4.97266 -39.9004 -8.14453 -55.8477 -17.9414c-18.6543 -11.457 -35.3857 -25.2803 -50.9961 -40.6104c-70.0762 -68.8135 -119.774 -160.232 -146.977 -254.124c-20.8994 -72.1299 -41.5225 -259.813 88.4004 -217.933
c46.9814 15.1426 82.1406 53.3877 111.957 91.083c32.1406 40.6387 60.3721 84.4492 85.9004 129.525c0.319336 3.55762 0.673828 7.1084 1.07129 10.6621c2.04688 18.3203 43.4131 17.873 46.0557 -0.000976562c14.4756 -97.9883 36.8262 -201.329 31.4131 -301.925
c41.4688 9.71875 82.4521 21.3496 122.523 36.5166c10.0947 3.82031 29.1426 -6.78516 13.1738 -12.8467c-44.6689 -16.9551 -90.4658 -29.6006 -136.812 -40.082c-2.54297 -29.8135 -7.7041 -59.3467 -16.4404 -88.3828
c-30.9766 -102.969 -113.109 -174.609 -218.625 -194.055c-49.0566 -9.04199 -101.969 -6.35352 -148.655 11.9385c-40.0215 15.6816 -82.8135 46.8252 -91.1025 91.834c-9.22266 50.0703 32.4346 90.1133 74.3545 108.611c52.3447 23.0947 112.457 32.2607 168.37 42.6465
c52.1211 9.68359 104.66 17.9629 156.823 27.8057zM205.912 -179.69c82.2822 40.9473 121.534 129.848 133.935 216.972c-44.9414 -8.33594 -90.1064 -15.7139 -134.995 -23.9463c-52.5498 -9.6377 -107.047 -19.0518 -157.334 -37.543
c-44.2744 -16.2812 -92.0361 -58.6836 -67.416 -110.372c19.498 -40.9365 69.3203 -58.459 111.325 -63.918c38.8721 -5.05078 79.3057 1.29883 114.485 18.8076z" />
    <glyph glyph-name="H" unicode="H" horiz-adv-x="825" 
d="M-34.8711 187.452c42.6357 4.01562 85.3672 6.87402 128.127 9.32812c27.4971 11.8398 53.6104 26.6494 79.8867 40.9941c-5.24219 137.066 -2.93262 274.559 5.89258 411.395c1.82324 28.2529 72.4531 27.4443 71.2754 0.000976562
c-5.40234 -125.904 -10.1982 -251.822 -8.10938 -377.801c42.0078 16.1885 86.8037 22.4844 126.627 -5.61914c20.1045 -14.1885 35.2969 -33.3926 47.0879 -54.8701c23.9746 0.958008 47.9492 1.95117 71.917 3.05078c46.8711 2.14941 93.9902 5.35938 141.078 7.50195
c-1.80176 34.7119 -3.30176 69.4453 -4.50391 104.203c-4.04688 117.118 -6.88086 234.491 -4.71387 351.673c0.584961 31.6963 79.5752 31.583 80.6963 0c2.34863 -66.1318 2.77441 -132.303 3.63965 -198.467c1.11035 -85.1191 3.13965 -170.221 6.875 -255.255
c4.01562 0.0107422 8.03809 0.0820312 12.0537 0.0576172c17.2002 -0.0996094 25.5605 -17.8418 4.83105 -20.3535c-5.27441 -0.638672 -10.5703 -1.14941 -15.873 -1.59668c1.17383 -24.7373 2.46875 -49.4707 3.96875 -74.1943
c3.51172 -57.8105 7.52734 -115.515 12.7949 -173.19c2.62793 -28.7842 5.35938 -57.5371 8.31445 -86.2861c2.90527 -28.2881 6.90625 -57.5801 5.21387 -86.0312c-1.30176 -21.8535 -51.0283 -22.7471 -58.0264 -4.47559
c-11.7832 30.7637 -17.0537 64.958 -22.0303 97.4033c-5.10742 33.2969 -9.82129 66.6572 -13.5918 100.135c-8.38184 74.4219 -14.2412 149.003 -18.4482 223.708c-3.80566 -0.0742188 -7.61133 -0.148438 -11.4102 -0.248047
c-64.7061 -1.68164 -129.408 -3.28516 -194.093 -5.12207c9.99902 -22.3076 17.0361 -46.1475 22.541 -68.877c15.9082 -65.6846 18.1855 -134.53 5.83105 -201.017c-5.67188 -30.5264 -14.0967 -60.7402 -26.749 -89.1387
c-11.4531 -25.7061 -26.8584 -54.9414 -49.3828 -72.7656c-45.7646 -36.2197 -101.365 -9.55664 -129.273 34.2041c-35.7402 56.0371 -45.6689 128.688 -53.9873 193.267c-8.35645 64.8799 -14.376 130.09 -17.9834 195.413
c-26.5107 -1.21973 -53.0146 -2.5498 -79.5146 -4.00781c-40.9834 -16.4375 -89.9824 -28.7812 -130.525 -7.99219c-4.56152 0.571289 -7.78223 3.09668 -8.94922 5.94824c-0.65625 1.00391 -0.758789 1.97266 -0.446289 2.88086
c0.304688 2.92676 2.99707 5.58398 8.95996 6.14453zM17.7783 175.75c2.7627 0.0712891 5.53418 0.245117 8.31152 0.532227c-2.77051 -0.177734 -5.54102 -0.351562 -8.31152 -0.532227zM433.533 13.5342c0.152344 46.5625 -8.44629 122.044 -34.5352 179.116
c-51.4541 -1.51465 -102.897 -3.20703 -154.33 -5.23633c2.64941 -62.7725 6.59375 -125.475 13.0312 -187.985c6.2998 -61.1904 9.33301 -127.173 32.3008 -184.909c6.85254 -17.2207 22.3818 -50.4854 45.6299 -47.2891c28.292 3.8916 47.5596 40.5332 58.6367 63.043
c27.6992 56.2891 39.0605 120.871 39.2666 183.261zM262.57 262.429c-6.78516 -2.47266 -13.4648 -5.17676 -20.0693 -8.06055c0.361328 -16.7314 0.87207 -33.4668 1.50391 -50.2021c48.7402 2.01855 97.4912 3.80664 146.235 5.70117
c-26.2803 46.4209 -66.834 74.7305 -127.67 52.5615zM173.917 219.107c-12.2695 -6.78516 -24.5459 -13.5518 -37 -19.9219c1.30176 0.0673828 2.60352 0.141602 3.90527 0.212891c11.3047 0.592773 22.6133 1.14258 33.9209 1.68555
c-0.102539 2.09668 -0.230469 4.19336 -0.326172 6.29297c-0.180664 3.90918 -0.330078 7.82129 -0.5 11.7305z" />
    <glyph glyph-name="I" unicode="I" horiz-adv-x="503" 
d="M427.298 723.58c33.9453 0.702148 100.91 0.537109 113.432 -40.6592c3.6709 -12.0889 -24.6133 -14.2207 -27.5791 -4.33496c-7.76855 25.9004 -44.0059 27.8408 -66.5869 28.7705c-26.0176 1.0752 -52.1455 -1.20605 -77.8408 -5.19629
c-44.335 -6.88086 -87.46 -19.5293 -129.891 -33.9092c0.234375 -1.14551 0.393555 -2.32324 0.375977 -3.57227c-1.4082 -104.479 -3.65723 -208.885 -2.64258 -313.382c0.908203 -93.4727 2.5791 -187.162 9.25781 -280.426
c6.18945 -86.4395 12.7803 -177.362 41.8242 -259.669c10.5664 -29.9512 37.1133 -78.5391 75.4541 -57.2031c37.415 20.8174 57.5479 62.627 74.2578 100.021c35.3115 79.0186 55.583 163.709 75.9824 247.502c2.08594 8.56641 27.9053 6.81738 25.9121 -1.99707
c-23.0137 -101.776 -45.832 -208.192 -98.623 -299.477c-19.1299 -33.0732 -43.1016 -68.2744 -83.5879 -75.415c-41.9619 -7.39941 -83.3242 13.167 -108.689 46.0381c-27.9834 36.2656 -43.5762 82.5938 -53.9268 126.741
c-11.2266 47.9033 -18.0439 96.4951 -22.8252 145.424c-10.0205 102.511 -12.5996 205.528 -13.8125 308.461c-1.13184 96.2471 -1.25977 192.696 2.50391 288.904c-24.251 -8.86035 -48.5273 -17.6572 -73.0381 -25.7871
c-22.9141 -7.59766 -46.0371 -14.6846 -69.4688 -20.5127c-18.6611 -4.64355 -37.5205 -7.49219 -55.71 0.279297c-15.8662 6.77832 3.20312 17.2773 13.3154 12.9854c14.9795 -6.35645 32.3633 0.514648 47.2012 4.6543c12.124 3.38086 24.1699 7.03809 36.1523 10.8799
c24.0566 7.71875 47.8574 16.207 71.5879 24.8691c10.2471 3.74219 20.4805 7.5166 30.7207 11.2871c0.0888672 1.94043 0.149414 3.88379 0.238281 5.82422c1.05371 22.7334 43.3203 28.377 65.1494 17.5615c17.4307 5.93066 34.96 11.5674 52.6738 16.6357
c48.2158 13.8018 97.9102 23.666 148.183 24.7021z" />
    <glyph glyph-name="I" unicode="&#xcf;" horiz-adv-x="503" 
d="M427.298 723.58c33.9453 0.702148 100.91 0.537109 113.432 -40.6592c3.6709 -12.0889 -24.6133 -14.2207 -27.5791 -4.33496c-7.76855 25.9004 -44.0059 27.8408 -66.5869 28.7705c-26.0176 1.0752 -52.1455 -1.20605 -77.8408 -5.19629
c-44.335 -6.88086 -87.46 -19.5293 -129.891 -33.9092c0.234375 -1.14551 0.393555 -2.32324 0.375977 -3.57227c-1.4082 -104.479 -3.65723 -208.885 -2.64258 -313.382c0.908203 -93.4727 2.5791 -187.162 9.25781 -280.426
c6.18945 -86.4395 12.7803 -177.362 41.8242 -259.669c10.5664 -29.9512 37.1133 -78.5391 75.4541 -57.2031c37.415 20.8174 57.5479 62.627 74.2578 100.021c35.3115 79.0186 55.583 163.709 75.9824 247.502c2.08594 8.56641 27.9053 6.81738 25.9121 -1.99707
c-23.0137 -101.776 -45.832 -208.192 -98.623 -299.477c-19.1299 -33.0732 -43.1016 -68.2744 -83.5879 -75.415c-41.9619 -7.39941 -83.3242 13.167 -108.689 46.0381c-27.9834 36.2656 -43.5762 82.5938 -53.9268 126.741
c-11.2266 47.9033 -18.0439 96.4951 -22.8252 145.424c-10.0205 102.511 -12.5996 205.528 -13.8125 308.461c-1.13184 96.2471 -1.25977 192.696 2.50391 288.904c-24.251 -8.86035 -48.5273 -17.6572 -73.0381 -25.7871
c-22.9141 -7.59766 -46.0371 -14.6846 -69.4688 -20.5127c-18.6611 -4.64355 -37.5205 -7.49219 -55.71 0.279297c-15.8662 6.77832 3.20312 17.2773 13.3154 12.9854c14.9795 -6.35645 32.3633 0.514648 47.2012 4.6543c12.124 3.38086 24.1699 7.03809 36.1523 10.8799
c24.0566 7.71875 47.8574 16.207 71.5879 24.8691c10.2471 3.74219 20.4805 7.5166 30.7207 11.2871c0.0888672 1.94043 0.149414 3.88379 0.238281 5.82422c1.05371 22.7334 43.3203 28.377 65.1494 17.5615c17.4307 5.93066 34.96 11.5674 52.6738 16.6357
c48.2158 13.8018 97.9102 23.666 148.183 24.7021z" />
    <glyph glyph-name="I" unicode="&#xce;" horiz-adv-x="503" 
d="M427.298 723.58c33.9453 0.702148 100.91 0.537109 113.432 -40.6592c3.6709 -12.0889 -24.6133 -14.2207 -27.5791 -4.33496c-7.76855 25.9004 -44.0059 27.8408 -66.5869 28.7705c-26.0176 1.0752 -52.1455 -1.20605 -77.8408 -5.19629
c-44.335 -6.88086 -87.46 -19.5293 -129.891 -33.9092c0.234375 -1.14551 0.393555 -2.32324 0.375977 -3.57227c-1.4082 -104.479 -3.65723 -208.885 -2.64258 -313.382c0.908203 -93.4727 2.5791 -187.162 9.25781 -280.426
c6.18945 -86.4395 12.7803 -177.362 41.8242 -259.669c10.5664 -29.9512 37.1133 -78.5391 75.4541 -57.2031c37.415 20.8174 57.5479 62.627 74.2578 100.021c35.3115 79.0186 55.583 163.709 75.9824 247.502c2.08594 8.56641 27.9053 6.81738 25.9121 -1.99707
c-23.0137 -101.776 -45.832 -208.192 -98.623 -299.477c-19.1299 -33.0732 -43.1016 -68.2744 -83.5879 -75.415c-41.9619 -7.39941 -83.3242 13.167 -108.689 46.0381c-27.9834 36.2656 -43.5762 82.5938 -53.9268 126.741
c-11.2266 47.9033 -18.0439 96.4951 -22.8252 145.424c-10.0205 102.511 -12.5996 205.528 -13.8125 308.461c-1.13184 96.2471 -1.25977 192.696 2.50391 288.904c-24.251 -8.86035 -48.5273 -17.6572 -73.0381 -25.7871
c-22.9141 -7.59766 -46.0371 -14.6846 -69.4688 -20.5127c-18.6611 -4.64355 -37.5205 -7.49219 -55.71 0.279297c-15.8662 6.77832 3.20312 17.2773 13.3154 12.9854c14.9795 -6.35645 32.3633 0.514648 47.2012 4.6543c12.124 3.38086 24.1699 7.03809 36.1523 10.8799
c24.0566 7.71875 47.8574 16.207 71.5879 24.8691c10.2471 3.74219 20.4805 7.5166 30.7207 11.2871c0.0888672 1.94043 0.149414 3.88379 0.238281 5.82422c1.05371 22.7334 43.3203 28.377 65.1494 17.5615c17.4307 5.93066 34.96 11.5674 52.6738 16.6357
c48.2158 13.8018 97.9102 23.666 148.183 24.7021z" />
    <glyph glyph-name="I" unicode="&#xcd;" horiz-adv-x="503" 
d="M427.298 723.58c33.9453 0.702148 100.91 0.537109 113.432 -40.6592c3.6709 -12.0889 -24.6133 -14.2207 -27.5791 -4.33496c-7.76855 25.9004 -44.0059 27.8408 -66.5869 28.7705c-26.0176 1.0752 -52.1455 -1.20605 -77.8408 -5.19629
c-44.335 -6.88086 -87.46 -19.5293 -129.891 -33.9092c0.234375 -1.14551 0.393555 -2.32324 0.375977 -3.57227c-1.4082 -104.479 -3.65723 -208.885 -2.64258 -313.382c0.908203 -93.4727 2.5791 -187.162 9.25781 -280.426
c6.18945 -86.4395 12.7803 -177.362 41.8242 -259.669c10.5664 -29.9512 37.1133 -78.5391 75.4541 -57.2031c37.415 20.8174 57.5479 62.627 74.2578 100.021c35.3115 79.0186 55.583 163.709 75.9824 247.502c2.08594 8.56641 27.9053 6.81738 25.9121 -1.99707
c-23.0137 -101.776 -45.832 -208.192 -98.623 -299.477c-19.1299 -33.0732 -43.1016 -68.2744 -83.5879 -75.415c-41.9619 -7.39941 -83.3242 13.167 -108.689 46.0381c-27.9834 36.2656 -43.5762 82.5938 -53.9268 126.741
c-11.2266 47.9033 -18.0439 96.4951 -22.8252 145.424c-10.0205 102.511 -12.5996 205.528 -13.8125 308.461c-1.13184 96.2471 -1.25977 192.696 2.50391 288.904c-24.251 -8.86035 -48.5273 -17.6572 -73.0381 -25.7871
c-22.9141 -7.59766 -46.0371 -14.6846 -69.4688 -20.5127c-18.6611 -4.64355 -37.5205 -7.49219 -55.71 0.279297c-15.8662 6.77832 3.20312 17.2773 13.3154 12.9854c14.9795 -6.35645 32.3633 0.514648 47.2012 4.6543c12.124 3.38086 24.1699 7.03809 36.1523 10.8799
c24.0566 7.71875 47.8574 16.207 71.5879 24.8691c10.2471 3.74219 20.4805 7.5166 30.7207 11.2871c0.0888672 1.94043 0.149414 3.88379 0.238281 5.82422c1.05371 22.7334 43.3203 28.377 65.1494 17.5615c17.4307 5.93066 34.96 11.5674 52.6738 16.6357
c48.2158 13.8018 97.9102 23.666 148.183 24.7021z" />
    <glyph glyph-name="J" unicode="J" horiz-adv-x="688" 
d="M879.476 796.653c86.0918 8.26074 205.319 0.644531 255.224 -82.8398c20.7324 -34.6865 25.2051 -81.6709 1.57129 -116.078c-24.6133 -35.8359 -69.3779 -49.5352 -110.286 -55.7891c-7.08398 -1.08496 -21.8047 -0.269531 -25.0889 8.11914
c-3.34863 8.55566 7.53711 13.2949 14.2451 14.3027c49.0527 7.37109 97.4277 32.0371 97.1084 88.1055c-0.297852 52.543 -38.9756 91.9727 -85.8428 109.495c-97.8711 36.5918 -213.318 7.53418 -307.862 -25.8584c-74.1162 -26.1777 -144.359 -61.1025 -213.01 -99.0137
c18.0654 -0.986328 35.4639 -8.54492 36.9502 -22.875c9.54883 -91.9941 14.2412 -184.559 17.8311 -276.96c1.85547 -47.7939 3.81348 -95.665 4.86035 -143.544c67.749 -8.35352 130.81 -36.0068 163.922 -94.2256c5.65039 -9.92871 -21.6123 -13.1357 -26.7734 -4.20801
c-28.3906 49.1201 -82.6357 71.6689 -136.807 79.7988c0.62793 -38.2412 0.617188 -76.4785 -0.652344 -114.681c-4.17871 -125.914 -24.1768 -308.923 -169.312 -350.896c-53.7422 -15.54 -111.985 -4.0293 -156.792 29.1113
c-50.9932 37.7158 -76.3193 99.0625 -75.7764 161.654c1.14258 131.938 105.37 239.67 226.418 277.283c30.1572 9.37109 65.5781 16.0215 102.266 18.2207c-7.79297 139.387 -19.2461 278.5 -27.8975 417.822c-8.56641 -4.8916 -17.1182 -9.80469 -25.6523 -14.7422
c-85.1514 -49.2656 -171.225 -100.5 -266.542 -127.586c-44.5938 -12.6738 -94.874 -24.3545 -141.036 -14.1816c-35.7861 7.88477 -68.292 32.4551 -73.4922 70.4795c-1.30859 9.57324 24.3438 10.2725 25.8262 0c10.1982 -70.7324 97.751 -61.1768 148.219 -49.6738
c58.2998 13.2871 113.567 37.5674 166.38 65.1641c186.577 97.4912 365.655 232.834 582.003 253.595zM496.635 -26.8633c3.03613 68.5898 -0.270508 136.808 -3.99512 205.263c-55.7959 -2.82031 -110.938 -17.9453 -159.037 -46.79
c-99.2578 -59.5303 -169.61 -183.777 -130.617 -299.774c17.7959 -52.9434 60.7793 -97.3848 116.43 -109.513c56.0117 -12.2051 105.686 21.3252 134.321 67.7705c33.3994 54.1709 40.1426 120.828 42.8984 183.044z" />
    <glyph glyph-name="K" unicode="K" horiz-adv-x="1075" 
d="M108.006 364.09c100.06 -10.9072 199.071 -31.4678 299.351 -39.6016c2.10742 1.5752 4.2041 3.15723 6.28223 4.74316c-11.0674 116.923 -13.9443 234.867 -12.1318 352.155c0.475586 30.6748 77.9727 30.377 77.9268 0
c-0.149414 -96.8252 1.42578 -193.522 7.00879 -290.085c47.8682 44.9453 91.9727 93.9873 135.772 142.799c33.2578 37.0635 65.9551 75.0244 101.763 109.68c28.4551 27.54 68.9951 68.5625 112.525 50.54c15.4863 -6.40918 -3.08301 -16.4648 -12.8945 -12.5732
c-19.3281 7.66504 -40.2559 -13.1211 -53.6855 -24.6807c-11.7617 -10.123 -22.9668 -20.8779 -33.8633 -31.9238c-21.0732 -21.3643 -41.1426 -43.7324 -61.2158 -66.0332c-39.2588 -43.6182 -77.9502 -87.7793 -118.784 -129.943
c-21.8008 -22.5137 -44.374 -44.5762 -67.9053 -65.5645c1.06055 -16.0332 2.24219 -32.0586 3.54395 -48.084c20.9062 -2.93359 41.0186 -7.375 61.1201 -16.165c25.7871 -11.2725 49.0811 -27.1455 70.8779 -44.8096c75.2764 -61.0068 128.323 -152.38 215.937 -197.608
c82.7002 -42.6924 184.853 -22.5557 252.184 38.9688c7.44141 6.7998 35.1582 1.46484 24.9316 -8.30762c-38.4434 -36.7441 -86.5771 -59.3535 -138.436 -69.9131c-104.281 -21.2324 -199.177 18.2109 -275.968 87.918c-40.2236 36.5137 -74.3535 79.1211 -114.056 116.217
c-18.3672 17.1611 -37.7236 33.8145 -58.7363 47.6875c-11.1523 7.36328 -23.2305 15.6035 -35.8369 22.3682c0.237305 -2.64941 0.454102 -5.29883 0.699219 -7.94824c5.96289 -64.6992 14.6641 -128.962 25.1387 -193.075
c5.3916 -33.0088 12.1201 -65.7197 18.374 -98.5654c5.90625 -30.998 17.4453 -65.7666 14.8135 -97.3955c-1.48633 -17.8701 -34.5312 -13.7373 -41.9697 -3.23828c-19.4238 27.4229 -28.1104 63.7168 -37.4248 95.6543
c-9.30078 31.8809 -16.5225 64.4854 -23.5029 96.9443c-13.9297 64.7734 -23.542 130.529 -31.1084 196.328c-0.960938 8.33594 -1.87207 16.6826 -2.74512 25.0322c-32.1611 -22.9492 -66.1211 -43.2529 -102.312 -59.584
c-90.5752 -40.8691 -200.103 -55.2637 -289.074 -2.0293c-28.3486 16.9619 -91.6035 65.5781 -56.0264 102.387c32.5625 33.6904 98.4639 22.1729 139.429 17.707zM131.472 226.263c91.3584 -10.3574 181.859 31.9473 256.479 84.1494
c-97.2998 9.1123 -193.521 28.3906 -290.786 38.7021c-28.0684 2.97559 -61.248 8.27832 -88.5781 -1.4375c-34.8965 -12.4043 -19.8818 -44.1299 -0.610352 -63.8232c32.6045 -33.3174 77.5352 -52.3799 123.495 -57.5908z" />
    <glyph glyph-name="L" unicode="L" horiz-adv-x="735" 
d="M391.653 678.904c22.3896 56.1895 52.2451 121.866 108.111 152.141c50.1094 27.1562 116.33 15.5498 153.032 -28.5654c38.7734 -46.6016 38.8477 -113.301 17.2676 -167.426c-42.4658 -106.501 -152.756 -173.637 -258.544 -210.413
c-0.269531 -10.3252 -0.428711 -20.6543 -0.460938 -30.9834c-0.212891 -70.2432 6.25684 -140.561 16.2881 -210.041c8.31836 -57.6191 20.7793 -114.305 32.1338 -171.278c43.7959 13.6885 88.7549 23.7158 133.459 33.8535
c31.3311 7.1084 62.6416 14.2881 93.6787 22.6064c23.9111 6.40625 54.2852 11.7979 66.125 36.3828c3.96875 8.23633 28.1816 5.82812 23.8369 -3.74512c-8.79297 -19.3633 -26.958 -29.4443 -46.1836 -36.4854c-26.915 -9.85742 -55.3984 -16.292 -83.2256 -22.9609
c-60.6904 -14.543 -122.08 -26.6602 -181.497 -46.0205c-0.925781 -0.301758 -1.85156 -0.625 -2.77734 -0.929688c1.8623 -9.5918 3.68164 -19.1934 5.42285 -28.8096c5.04785 -27.8408 -72.6543 -31.9551 -79.5254 -6.13184
c-0.361328 1.37305 -0.680664 2.75977 -1.04199 4.13281c-68.5371 -34.3887 -128.656 -84.793 -159.041 -157.306c-4.18945 -9.99609 -32.9209 -7.0625 -28.1113 4.41895c33.7041 80.4375 104.702 136.003 182.348 171.906
c-19.2539 77.9648 -31.9316 158.427 -40.5156 238.041c-6.48438 60.1621 -9.28613 121.03 -6.52246 181.579c-48.9893 -11.5137 -98.9814 -18.7041 -149.105 -22.9355c-38.9395 -3.28418 -78.667 -4.23145 -116.717 -13.9609
c-17.6924 -4.52637 -34.9561 -11.0391 -50.7686 -20.2227c-7.09375 -4.11816 -43.3906 -25.3477 -35.8633 -37.6279c5.33105 -8.70117 -18.8994 -11.1699 -23.8369 -3.74609c-14.6318 22.0059 36.1514 49.9961 51.1377 57.4805
c31.7783 15.8623 66.7275 23.1582 101.812 27.0918c71.4238 8.00977 142.245 11.3584 212.552 27.7705c3.88379 0.908203 7.77832 1.85547 11.6875 2.83105c1.06055 16.8311 2.54297 33.6338 4.53613 50.3799c8.44238 70.8887 23.8301 142.512 50.3096 208.974z
M548.435 827.59c-25.9932 -7.31738 -44.373 -30.7129 -57.04 -53.2549c-30.3633 -54.0254 -48.7158 -118.686 -61.2725 -179.015c-10.46 -50.2588 -15.8867 -101.266 -17.9941 -152.472c89.5674 33.4453 174.808 87.9141 220.097 171.614
c28.3516 52.3975 37.6836 121.311 2.25879 172.995c-17.9521 26.1885 -53.1992 49.3828 -86.0488 40.1318z" />
    <glyph glyph-name="M" unicode="M" horiz-adv-x="1000" 
d="M41.4209 70.1289c-16.583 -17.2744 -29.6748 -37.4834 -39.7236 -59.1885c-20.0273 -43.3066 -27.3057 -91.9688 -23.127 -139.386c3.60059 -40.8379 19.4736 -82.293 51.5752 -109.166c35.2969 -29.5469 80.5049 -25.2793 116.938 0.0615234
c73.2158 50.9219 91.1074 159.438 106.544 240.762c33.4951 176.485 36.9248 360.824 109.144 527.931c0.369141 0.854492 0.986328 1.56738 1.70996 2.21289c4.24219 19.7041 49.1025 18.0654 58.7256 1.77051c34.0879 -57.7178 59.542 -120.931 90.8379 -180.241
c26.2842 -49.8115 55.2568 -97.9561 82.9414 -146.902c15.1533 68.2139 33.6689 135.513 55.207 202.053c24.1943 74.7402 50.1025 150.981 84.4414 221.768c11.1201 22.9287 27.5967 56.9844 52.0996 68.3564c24.7373 11.4785 48.8857 -3.32324 59.5166 -26.1738
c30.498 -65.5537 30.9062 -145.444 34.5957 -216.489c7.74316 -149.166 3.6748 -298.807 16.3945 -447.752c6.1582 -72.1084 16.1045 -144.178 34.627 -214.232c14.9756 -56.6367 34.3359 -119.303 70.7861 -166.337c14.6992 -18.9629 34.1055 -37.2158 57.8994 -43.4229
c26.252 -6.8457 55.001 2.20996 77.415 15.8906c57.2646 34.9531 76.9727 106.533 77.1318 169.721c0.0283203 11.4287 28.8271 11.418 29.1533 0c1.94043 -67.9121 -18.7246 -137.893 -73.1406 -181.862c-53.1143 -42.916 -125.829 -49.1055 -185.853 -16.7168
c-50.8193 27.4189 -84.751 79.8096 -105.572 132.179c-26.8447 67.5186 -42.7637 138.829 -52.6426 210.661c-20.5908 149.733 -16.6504 300.86 -16.3066 451.559c0.169922 74.9746 2.09961 149.978 -0.373047 224.941c-0.621094 18.8213 -0.886719 38.082 -2.37695 56.8037
c-0.666992 8.34961 -1.77344 17.6328 -4.65723 25.5215c-0.97168 2.65723 -2.32715 6.12305 -4.0332 8.52832c-0.560547 0.794922 -0.975586 1.41895 -1.29492 1.93359c0.248047 -0.982422 0.293945 -2.25977 -0.405273 -3.47266
c-4.95508 -8.6123 -13.4932 -16.001 -18.9844 -24.5459c-4.41211 -6.86328 -8.41699 -13.957 -12.1768 -21.2002c-7.59473 -14.625 -14.0615 -29.7959 -20.418 -44.9883c-56.4238 -134.889 -99.5488 -274.715 -133.133 -416.946
c-0.269531 -1.14258 -1.01758 -2.0752 -2.0459 -2.84473c-3.75684 -9.1123 -19.2148 -14.6953 -27.0361 -15.9473c-16.4688 -2.63867 -36.0098 0.614258 -46.0518 14.9053c-38.0889 54.2139 -69.8779 114.174 -99.3545 173.449
c-23.666 47.5947 -49.418 97.5693 -66.1777 148.978c-37.4434 -102.082 -52.4834 -210.449 -66.5654 -318.015c-13.6211 -104.029 -25.209 -211.946 -61.0703 -311.208c-16.1816 -44.7822 -40.9229 -87.0029 -81.3457 -113.815
c-35.8008 -23.7441 -81.7529 -32.1367 -122.687 -17.2988c-95.3457 34.5625 -118.036 143.291 -97.6865 232.795c18.1396 79.792 93.377 195.679 190.085 148.74c8.36719 -4.06543 6.93066 -12.4717 0 -16.7783c-8.59473 -5.33789 -20.7041 -4.19922 -29.4297 0.000976562
c-23.5918 11.3574 -48.8682 -10.7236 -64.0996 -26.5898z" />
    <glyph glyph-name="N" unicode="N" horiz-adv-x="1068" 
d="M129.578 220.511c-45.4277 -8.7334 -83.8965 -49.6875 -105.367 -88.5566c-40.4619 -73.251 -25.9297 -171.122 48.8779 -216.737c79.2207 -48.3047 166.202 -2.64648 211.517 68.7598c50.0596 78.8838 63.248 176.879 77.085 267.372
c14.8838 97.2998 29.2314 196.611 19.9131 295.167c-0.0605469 0.660156 0.0175781 1.27344 0.180664 1.84766c-0.163086 0.571289 -0.369141 1.125 -0.52832 1.69629c-3.83105 13.6348 20.4521 13.0215 27.6035 9.16211
c67.0791 -36.2227 86.1621 -123.488 104.384 -191.603c21.2148 -79.3125 36.6025 -160.633 47.751 -241.946c9.71582 -70.8672 12.0742 -144.7 35.5596 -212.847c17.7891 -51.6211 54.3242 -120.676 116.827 -123.478c64.6631 -2.89844 115.266 67.1035 145.536 115.404
c35.4004 56.4912 60.0566 119.15 77.2852 183.392c35.666 132.987 47.4922 290.336 -5.00781 420.695c-23.6484 58.7188 -69.0439 116.773 -134.523 129.547c-58.8643 11.4785 -117.544 -24.1025 -144.445 -75.5811c-4.75684 -9.10156 -31.9414 -6.28906 -26.7764 4.20703
c29.377 59.6904 96.6826 94.292 162.297 89.0674c74.3828 -5.91992 133.141 -61.4209 163.628 -126.524c31.9307 -68.1855 41.9365 -147.637 42.3164 -222.211c0.400391 -78.458 -11.7344 -156.853 -32.4355 -232.434
c-19.6865 -71.8604 -48.9893 -141.798 -92.4766 -202.627c-37.4502 -52.3799 -87.0068 -101.802 -155.398 -104.036c-73.1973 -2.39062 -137.371 42.3877 -173.746 103.302c-40.4971 67.8135 -42.5967 150.531 -52.3477 226.854
c-10.457 81.8594 -24.5176 162.964 -42.1748 243.567c-8.38574 38.2764 -17.2822 76.5215 -28.335 114.128c-1.61426 5.4873 -3.4873 10.8613 -5.44922 16.1924c0.0458984 -44.3672 -3.49805 -88.7129 -7.88574 -132.977
c-6.44824 -65.0391 -10.5732 -130.032 -22.7324 -194.376c-18.3564 -97.1191 -54.5654 -206.408 -150.063 -253.081c-86.3896 -42.2246 -198.045 -14.9336 -247.2 69.9092c-50.8408 87.748 -9.85449 195.781 68.2207 252.07
c38.6211 27.8447 89.0781 40.1748 135.137 24.5752c45.002 -15.2422 69.8213 -55.583 66.9766 -102.312c-0.890625 -14.6494 -36.1309 -14.5537 -37.1875 0c-3.45508 47.5527 -32.9844 94.7969 -87.0137 84.4111z" />
    <glyph glyph-name="O" unicode="O" horiz-adv-x="654" 
d="M571.433 382.223c16.4727 -94.5479 13.0928 -193.628 -6.3877 -288.197c38.5742 11.8682 75.8789 25.0459 110.8 37.5781c10.7549 3.85938 31.1045 -7.49121 14.0146 -13.667c-28.3203 -10.2295 -56.6514 -20.4482 -85.2051 -30.0039
c-14.5967 -4.8877 -29.2783 -9.56641 -44.0273 -13.9824c-3.625 -15.6357 -7.65137 -31.1396 -12.1348 -46.4453c-29.2529 -99.8291 -88.2979 -197.765 -185.971 -242.908c-48.2441 -22.2969 -105.47 -30.9336 -154.313 -5.24512
c-43.2354 22.7402 -67.6006 69.4443 -78.7383 115.205c-16.3096 67.0225 -16.7852 135.077 -9.61621 202.767c-34.6406 21.8857 -65.1104 50.1484 -88.8086 85.375c-108.197 160.814 -80.5508 466.169 127.841 533.489c94.0156 30.3701 200.265 1.1709 273.813 -62.2441
c79.3408 -68.4092 121.104 -170.555 138.733 -271.721zM413.566 -137.297c52.6064 54.6533 83.2402 125.549 102.032 198.746c-78.0576 -19.8145 -157.963 -29.9268 -238.911 -19.0439c-29.334 3.94434 -58.2959 10.7871 -85.9805 20.6768
c-5.40527 -57.3701 -4.77051 -114.868 8.38184 -171.316c9.27539 -39.8164 29.5361 -96.5381 77.8613 -100.011c51.248 -3.68555 103.178 36.2119 136.616 70.9482zM192.964 84.2256c99.4355 -46.2822 216.756 -32.8359 327.386 -3.11133
c4.01855 17.6328 7.41992 35.3223 10.3213 52.8838c17.3457 105.015 15.998 215.042 -15.167 317.433c-26.1455 85.9072 -75.1416 171.154 -154.234 218.097c-80.6221 47.8506 -181.827 49.7344 -253.305 -15.8125c-73.4492 -67.3594 -93.5332 -172.53 -90.8799 -268.11
c2.49316 -89.8828 29.7139 -182.898 96.0625 -246.529c3.50781 -3.3623 7.06934 -6.57227 10.6553 -9.7041c5.8457 42.0645 14.1455 83.9023 22.9424 125.176c3.5791 16.7852 22.6699 21.6553 37.9932 21.6553c10.1592 0 41.1709 -5.36328 37.9932 -21.6553
c-10.8721 -55.7217 -22.957 -112.887 -29.7676 -170.321z" />
    <glyph glyph-name="O" unicode="&#xd6;" horiz-adv-x="654" 
d="M571.433 382.223c16.4727 -94.5479 13.0928 -193.628 -6.3877 -288.197c38.5742 11.8682 75.8789 25.0459 110.8 37.5781c10.7549 3.85938 31.1045 -7.49121 14.0146 -13.667c-28.3203 -10.2295 -56.6514 -20.4482 -85.2051 -30.0039
c-14.5967 -4.8877 -29.2783 -9.56641 -44.0273 -13.9824c-3.625 -15.6357 -7.65137 -31.1396 -12.1348 -46.4453c-29.2529 -99.8291 -88.2979 -197.765 -185.971 -242.908c-48.2441 -22.2969 -105.47 -30.9336 -154.313 -5.24512
c-43.2354 22.7402 -67.6006 69.4443 -78.7383 115.205c-16.3096 67.0225 -16.7852 135.077 -9.61621 202.767c-34.6406 21.8857 -65.1104 50.1484 -88.8086 85.375c-108.197 160.814 -80.5508 466.169 127.841 533.489c94.0156 30.3701 200.265 1.1709 273.813 -62.2441
c79.3408 -68.4092 121.104 -170.555 138.733 -271.721zM413.566 -137.297c52.6064 54.6533 83.2402 125.549 102.032 198.746c-78.0576 -19.8145 -157.963 -29.9268 -238.911 -19.0439c-29.334 3.94434 -58.2959 10.7871 -85.9805 20.6768
c-5.40527 -57.3701 -4.77051 -114.868 8.38184 -171.316c9.27539 -39.8164 29.5361 -96.5381 77.8613 -100.011c51.248 -3.68555 103.178 36.2119 136.616 70.9482zM192.964 84.2256c99.4355 -46.2822 216.756 -32.8359 327.386 -3.11133
c4.01855 17.6328 7.41992 35.3223 10.3213 52.8838c17.3457 105.015 15.998 215.042 -15.167 317.433c-26.1455 85.9072 -75.1416 171.154 -154.234 218.097c-80.6221 47.8506 -181.827 49.7344 -253.305 -15.8125c-73.4492 -67.3594 -93.5332 -172.53 -90.8799 -268.11
c2.49316 -89.8828 29.7139 -182.898 96.0625 -246.529c3.50781 -3.3623 7.06934 -6.57227 10.6553 -9.7041c5.8457 42.0645 14.1455 83.9023 22.9424 125.176c3.5791 16.7852 22.6699 21.6553 37.9932 21.6553c10.1592 0 41.1709 -5.36328 37.9932 -21.6553
c-10.8721 -55.7217 -22.957 -112.887 -29.7676 -170.321z" />
    <glyph glyph-name="O" unicode="&#xd5;" horiz-adv-x="654" 
d="M571.433 382.223c16.4727 -94.5479 13.0928 -193.628 -6.3877 -288.197c38.5742 11.8682 75.8789 25.0459 110.8 37.5781c10.7549 3.85938 31.1045 -7.49121 14.0146 -13.667c-28.3203 -10.2295 -56.6514 -20.4482 -85.2051 -30.0039
c-14.5967 -4.8877 -29.2783 -9.56641 -44.0273 -13.9824c-3.625 -15.6357 -7.65137 -31.1396 -12.1348 -46.4453c-29.2529 -99.8291 -88.2979 -197.765 -185.971 -242.908c-48.2441 -22.2969 -105.47 -30.9336 -154.313 -5.24512
c-43.2354 22.7402 -67.6006 69.4443 -78.7383 115.205c-16.3096 67.0225 -16.7852 135.077 -9.61621 202.767c-34.6406 21.8857 -65.1104 50.1484 -88.8086 85.375c-108.197 160.814 -80.5508 466.169 127.841 533.489c94.0156 30.3701 200.265 1.1709 273.813 -62.2441
c79.3408 -68.4092 121.104 -170.555 138.733 -271.721zM413.566 -137.297c52.6064 54.6533 83.2402 125.549 102.032 198.746c-78.0576 -19.8145 -157.963 -29.9268 -238.911 -19.0439c-29.334 3.94434 -58.2959 10.7871 -85.9805 20.6768
c-5.40527 -57.3701 -4.77051 -114.868 8.38184 -171.316c9.27539 -39.8164 29.5361 -96.5381 77.8613 -100.011c51.248 -3.68555 103.178 36.2119 136.616 70.9482zM192.964 84.2256c99.4355 -46.2822 216.756 -32.8359 327.386 -3.11133
c4.01855 17.6328 7.41992 35.3223 10.3213 52.8838c17.3457 105.015 15.998 215.042 -15.167 317.433c-26.1455 85.9072 -75.1416 171.154 -154.234 218.097c-80.6221 47.8506 -181.827 49.7344 -253.305 -15.8125c-73.4492 -67.3594 -93.5332 -172.53 -90.8799 -268.11
c2.49316 -89.8828 29.7139 -182.898 96.0625 -246.529c3.50781 -3.3623 7.06934 -6.57227 10.6553 -9.7041c5.8457 42.0645 14.1455 83.9023 22.9424 125.176c3.5791 16.7852 22.6699 21.6553 37.9932 21.6553c10.1592 0 41.1709 -5.36328 37.9932 -21.6553
c-10.8721 -55.7217 -22.957 -112.887 -29.7676 -170.321z" />
    <glyph glyph-name="O" unicode="&#xd4;" horiz-adv-x="654" 
d="M571.433 382.223c16.4727 -94.5479 13.0928 -193.628 -6.3877 -288.197c38.5742 11.8682 75.8789 25.0459 110.8 37.5781c10.7549 3.85938 31.1045 -7.49121 14.0146 -13.667c-28.3203 -10.2295 -56.6514 -20.4482 -85.2051 -30.0039
c-14.5967 -4.8877 -29.2783 -9.56641 -44.0273 -13.9824c-3.625 -15.6357 -7.65137 -31.1396 -12.1348 -46.4453c-29.2529 -99.8291 -88.2979 -197.765 -185.971 -242.908c-48.2441 -22.2969 -105.47 -30.9336 -154.313 -5.24512
c-43.2354 22.7402 -67.6006 69.4443 -78.7383 115.205c-16.3096 67.0225 -16.7852 135.077 -9.61621 202.767c-34.6406 21.8857 -65.1104 50.1484 -88.8086 85.375c-108.197 160.814 -80.5508 466.169 127.841 533.489c94.0156 30.3701 200.265 1.1709 273.813 -62.2441
c79.3408 -68.4092 121.104 -170.555 138.733 -271.721zM413.566 -137.297c52.6064 54.6533 83.2402 125.549 102.032 198.746c-78.0576 -19.8145 -157.963 -29.9268 -238.911 -19.0439c-29.334 3.94434 -58.2959 10.7871 -85.9805 20.6768
c-5.40527 -57.3701 -4.77051 -114.868 8.38184 -171.316c9.27539 -39.8164 29.5361 -96.5381 77.8613 -100.011c51.248 -3.68555 103.178 36.2119 136.616 70.9482zM192.964 84.2256c99.4355 -46.2822 216.756 -32.8359 327.386 -3.11133
c4.01855 17.6328 7.41992 35.3223 10.3213 52.8838c17.3457 105.015 15.998 215.042 -15.167 317.433c-26.1455 85.9072 -75.1416 171.154 -154.234 218.097c-80.6221 47.8506 -181.827 49.7344 -253.305 -15.8125c-73.4492 -67.3594 -93.5332 -172.53 -90.8799 -268.11
c2.49316 -89.8828 29.7139 -182.898 96.0625 -246.529c3.50781 -3.3623 7.06934 -6.57227 10.6553 -9.7041c5.8457 42.0645 14.1455 83.9023 22.9424 125.176c3.5791 16.7852 22.6699 21.6553 37.9932 21.6553c10.1592 0 41.1709 -5.36328 37.9932 -21.6553
c-10.8721 -55.7217 -22.957 -112.887 -29.7676 -170.321z" />
    <glyph glyph-name="O" unicode="&#xd3;" horiz-adv-x="654" 
d="M571.433 382.223c16.4727 -94.5479 13.0928 -193.628 -6.3877 -288.197c38.5742 11.8682 75.8789 25.0459 110.8 37.5781c10.7549 3.85938 31.1045 -7.49121 14.0146 -13.667c-28.3203 -10.2295 -56.6514 -20.4482 -85.2051 -30.0039
c-14.5967 -4.8877 -29.2783 -9.56641 -44.0273 -13.9824c-3.625 -15.6357 -7.65137 -31.1396 -12.1348 -46.4453c-29.2529 -99.8291 -88.2979 -197.765 -185.971 -242.908c-48.2441 -22.2969 -105.47 -30.9336 -154.313 -5.24512
c-43.2354 22.7402 -67.6006 69.4443 -78.7383 115.205c-16.3096 67.0225 -16.7852 135.077 -9.61621 202.767c-34.6406 21.8857 -65.1104 50.1484 -88.8086 85.375c-108.197 160.814 -80.5508 466.169 127.841 533.489c94.0156 30.3701 200.265 1.1709 273.813 -62.2441
c79.3408 -68.4092 121.104 -170.555 138.733 -271.721zM413.566 -137.297c52.6064 54.6533 83.2402 125.549 102.032 198.746c-78.0576 -19.8145 -157.963 -29.9268 -238.911 -19.0439c-29.334 3.94434 -58.2959 10.7871 -85.9805 20.6768
c-5.40527 -57.3701 -4.77051 -114.868 8.38184 -171.316c9.27539 -39.8164 29.5361 -96.5381 77.8613 -100.011c51.248 -3.68555 103.178 36.2119 136.616 70.9482zM192.964 84.2256c99.4355 -46.2822 216.756 -32.8359 327.386 -3.11133
c4.01855 17.6328 7.41992 35.3223 10.3213 52.8838c17.3457 105.015 15.998 215.042 -15.167 317.433c-26.1455 85.9072 -75.1416 171.154 -154.234 218.097c-80.6221 47.8506 -181.827 49.7344 -253.305 -15.8125c-73.4492 -67.3594 -93.5332 -172.53 -90.8799 -268.11
c2.49316 -89.8828 29.7139 -182.898 96.0625 -246.529c3.50781 -3.3623 7.06934 -6.57227 10.6553 -9.7041c5.8457 42.0645 14.1455 83.9023 22.9424 125.176c3.5791 16.7852 22.6699 21.6553 37.9932 21.6553c10.1592 0 41.1709 -5.36328 37.9932 -21.6553
c-10.8721 -55.7217 -22.957 -112.887 -29.7676 -170.321z" />
    <glyph glyph-name="P" unicode="P" horiz-adv-x="475" 
d="M-8.51367 620.85c2.38379 30.7324 78.7734 30.2041 77.9258 0.000976562c-3.73535 -132.548 -8.62305 -264.904 -6.96973 -397.544c0.706055 -56.7354 2.04688 -113.574 5.84961 -170.211c1.09961 26.915 2.30957 53.8271 3.63281 80.7285
c4.49414 91.2559 11.333 182.629 27.3516 272.675c13.2871 74.6943 29.9902 153.894 68.6572 220.071c14.6426 25.0635 33.9072 49.9141 61.9932 60.417c27.4297 10.2617 57.8428 5.20703 82.4521 -9.88574c61.1699 -37.5176 92.6543 -108.246 109.432 -175.184
c18.2422 -72.7861 22.8496 -149.407 8.15039 -223.261c-9.10938 -45.7715 -25.4473 -93.4834 -52.9834 -132.395c0.723633 -0.397461 1.44727 -0.794922 2.16699 -1.19238c31.7568 -17.6113 78.6104 -53.8701 116.656 -41.0225
c9.57715 3.23535 27.7842 -6.92383 12.4746 -12.166c-29.6504 -10.1514 -58.999 -2.0957 -86.4961 10.7197c-19.083 8.89258 -37.4609 19.2041 -56.002 29.1924c-10.2578 -12.2764 -21.7783 -23.4531 -34.8496 -33.0059
c-30.4336 -22.2471 -68.6396 -33.5801 -106.338 -30.9941c-29.4092 2.01465 -71.3496 13.0244 -84.2256 43.3271c-11.9111 28.0322 13.2803 56.9512 37.0391 67.8623c30.2637 13.8975 66.4053 14.4824 98.6162 8.04492c15.8945 -3.1748 31.1826 -8.05176 46.0488 -14.0176
c5.8877 9.50293 10.9951 19.0947 15.2588 28.1367c27.4756 58.25 38.9365 122.935 39.043 187.048c0.106445 64.71 -7.46289 130.175 -28.5645 191.539c-9.53125 27.7139 -22.7549 57.8076 -45.0801 77.707c-26.5254 23.6445 -58.123 23.0381 -82.9707 -2.10742
c-44.0332 -44.5586 -62.2617 -115.986 -76.7305 -174.949c-16.749 -68.2568 -26.8369 -138.024 -33.5654 -207.931c-12.6846 -131.796 -15.2559 -264.524 -19.9482 -396.82c1.70605 -12.4932 2.83008 -24.9502 2.56055 -37.1982
c-0.506836 -22.9424 -48.4844 -20.1689 -56.9375 -4.3916c-15.6357 29.1816 -21.6484 65.2764 -27.877 97.5332c-6.03711 31.2529 -10.1982 62.7578 -13.4648 94.4121c-6.6543 64.4609 -9.3291 129.146 -10.5244 193.912c-2.46191 133.516 -2.12109 267.752 8.21875 400.948
zM220.702 104.38c37.9932 -2.8125 68.8203 22.8779 91.1523 53.4395c-32.8564 13.085 -72.5518 23.0811 -106.508 9.375c-15.2734 -6.16113 -31.2744 -22.2402 -23.8789 -39.8516c6.23242 -14.8408 24.0391 -21.8389 39.2344 -22.9629z" />
    <glyph glyph-name="Q" unicode="Q" horiz-adv-x="654" 
d="M158.887 716.188c94.0117 30.374 200.27 1.16992 273.808 -62.2451c79.3408 -68.4092 121.104 -170.555 138.733 -271.721c16.4766 -94.5479 13.0928 -193.629 -6.3916 -288.194c38.5781 11.8682 75.8828 25.0459 110.804 37.5781
c10.7549 3.85938 31.1045 -7.49121 14.0146 -13.667c-28.3203 -10.2295 -56.6475 -20.4482 -85.2012 -30.0039c-14.5967 -4.8877 -29.2783 -9.56641 -44.0273 -13.9824c-3.62109 -15.6357 -7.64746 -31.1396 -12.1348 -46.4453
c-29.2529 -99.8291 -88.2979 -197.765 -185.971 -242.908c-7.9707 -3.68164 -16.2031 -6.94824 -24.585 -9.79297c0.691406 -3.20996 1.39746 -6.40918 2.13184 -9.58398c9.38184 -40.4688 21.793 -81.416 45.4131 -116.082
c21.0908 -30.9521 68.4268 -75.3047 104.434 -38.9717c6.99512 7.05859 33.5273 1.64258 23.9746 -7.9873c-23.5488 -23.7441 -60.375 -26.5176 -90.3906 -14.3047c-33.4424 13.6064 -58.375 43.6826 -75.373 74.5957c-18.0156 32.7607 -27.9541 68.9336 -36.2051 105.202
c-34.8682 -7.26465 -71.1475 -5.44824 -103.71 11.6768c-43.2354 22.7402 -67.6006 69.4443 -78.7383 115.205c-16.3096 67.0225 -16.7852 135.077 -9.61621 202.767c-34.6377 21.8857 -65.1074 50.1494 -88.8086 85.376c-108.197 160.814 -80.5547 466.169 127.84 533.489z
M413.569 -137.299c52.6064 54.6533 83.2373 125.547 102.02 198.741c-78.0537 -19.8145 -157.959 -29.9268 -238.907 -19.0439c-29.334 3.94434 -58.2959 10.7871 -85.9805 20.6768c-5.40527 -57.3701 -4.77051 -114.868 8.38184 -171.316
c9.2793 -39.8164 29.54 -96.5381 77.8652 -100.011c9.83301 -0.706055 19.6865 0.202148 29.4307 2.3584c-7.32129 36.4287 -25.3516 118.498 -45.5625 106.931c-8.63379 -4.94141 -33.2607 3.16406 -19.4375 11.0811c27.1885 15.5752 57.1758 -0.0888672 68.5547 -27.1104
c10.9111 -25.9043 16.75 -54.2451 22.3223 -82.292c31.2959 13.7275 60.0488 37.8906 81.3135 59.9854zM515.507 451.427c-26.1455 85.9072 -75.1416 171.152 -154.238 218.095c-80.625 47.8506 -181.83 49.7344 -253.308 -15.8125
c-73.4492 -67.3594 -93.5332 -172.53 -90.8799 -268.11c2.49316 -89.8828 29.7168 -182.898 96.0615 -246.529c3.50781 -3.3623 7.06934 -6.57227 10.6553 -9.7041c5.8418 42.0645 14.1455 83.9023 22.9424 125.176c3.5791 16.7852 22.6699 21.6553 37.9932 21.6553
c10.1592 0 41.1709 -5.36328 37.9932 -21.6553c-10.8721 -55.7207 -22.957 -112.886 -29.7676 -170.32c99.4395 -46.2822 216.756 -32.835 327.39 -3.11035c4.02246 17.6328 7.4209 35.3223 10.3223 52.8838c17.3486 105.015 16.001 215.042 -15.1641 317.433z" />
    <glyph glyph-name="R" unicode="R" horiz-adv-x="527" 
d="M461.815 342.062c0.333008 -86.9033 -21.9883 -192.495 -98.0273 -244.893c-21.1123 -14.5498 -46.1514 -24.5381 -72.0059 -28.7734c20.8887 -92.707 21.6299 -190.883 59.8955 -279.212c16.0146 -36.9678 39.5713 -72.542 75.3652 -92.792
c36.5068 -20.6582 84.2363 -23.2295 124.981 -16.9619c88.8262 13.6631 168.036 82.9551 164.829 177.736c-0.418945 12.3115 30.6533 12.4248 31.6465 -0.000976562c6.71094 -83.9209 -50.5742 -158.459 -125.269 -190.535
c-80.9414 -34.7578 -192.221 -36.8721 -263.847 19.8066c-60.8965 48.1875 -84.2754 128.866 -94.1963 202.617c-5.68262 42.2246 -6.06543 84.917 -7.25684 127.439c-0.464844 16.5156 -0.191406 33.1836 -0.493164 49.7949
c-11.1631 0.486328 -22.2305 2.08984 -32.9502 5.03711c-32.2109 8.85352 -80.8164 39.9863 -65.8408 80.2422c13.9404 37.4824 56.9736 59.2363 92.5791 36.1768c15.8486 -10.2686 23.0029 -27.3867 26.8301 -45.2217c1.88672 -8.79004 3.41211 -17.626 4.86621 -26.4756
c15.4473 5.23926 30.4443 16.7783 40.958 26.8525c29.2744 28.0508 45.4668 66.2461 57.8848 104.133c13.4365 40.9971 19.96 83.7041 21.0918 126.78c1.07812 41.0225 -3.2959 84.3818 -17.2646 123.173c-13.5283 37.5742 -48.0557 82.4414 -93.9512 66.7314
c-37.7803 -12.9365 -61.6455 -56.3135 -79.7217 -89.0527c-20.2109 -36.6094 -35.9668 -75.5283 -49.7256 -114.961c-50.8584 -145.746 -79.334 -298.867 -86.0059 -452.981c0.801758 -11.1523 1.62109 -22.3047 2.51172 -33.4492
c2.67773 -33.541 8.31055 -70.126 2.21289 -103.419c-3.33105 -18.1748 -41.668 -19.6357 -49.0459 -3.78418c-14.6602 31.502 -18.8174 69.6328 -23.542 103.752c-4.77832 34.4844 -9.18359 69.0508 -12.376 103.72c-6.37402 69.207 -10.999 138.588 -13.0811 208.062
c-4.19629 139.922 -1.83398 280.524 12.2549 419.854c3.18848 31.5127 81.6504 30.4277 79.5898 0.000976562c-9.39648 -138.666 -15.5254 -277.375 -12.5352 -416.382c0.836914 -38.9473 2.14941 -77.8867 3.94043 -116.806
c4.49805 31.4766 9.91113 62.833 16.3066 94.0088c21.2793 103.728 49.7021 210.867 98.7012 305.27c18.2676 35.1875 40.3379 74.1807 73.8398 97.0273c31.335 21.3711 71.0059 21.4951 104.157 3.96875c76.1631 -40.2598 102.391 -147.297 102.692 -226.482z
M252.836 116.218c0.195312 -0.0917969 0.401367 -0.138672 0.603516 -0.227539c-1.9043 11.0918 -4.67773 22.0557 -8.76074 32.8242c-2.79492 7.37402 -13.7764 32.9062 -25.085 22.6875c-7.21875 -6.52637 0.276367 -18.2109 3.4541 -24.3115
c6.83887 -13.1309 15.9971 -24.5879 29.7881 -30.9727z" />
    <glyph glyph-name="S" unicode="S" horiz-adv-x="514" 
d="M315.696 350.729c99.7051 -38.4678 171.637 80.584 162.698 166.32c-10.4424 100.092 -107.49 153.326 -201.172 144.65c-78.5215 -7.27148 -153.074 -47.8398 -196.892 -114.209c-44.3457 -67.168 -50.8125 -147.119 -21.6523 -221.448
c55.5723 -141.663 197.378 -209.281 310.239 -300.183c42.8164 49.7129 105.263 88.9717 170.408 91.7598c15.9375 0.68457 15.3203 -13.6602 0 -14.7207c-49.5459 -3.43359 -96.3037 -35.7158 -130.874 -69.4482c-7.4209 -7.24707 -14.4189 -14.9688 -20.9238 -23.0811
c5.88477 -5.05078 11.6982 -10.1582 17.3594 -15.3936c28.5117 -26.3584 55.9941 -55.8984 75.0205 -89.9004c16.9307 -30.2568 37.0742 -64.7627 16.2812 -98.1055c-34.6797 -55.6113 -111.534 -58.4912 -152.503 -8.47754
c-41.1855 50.2725 -36.5176 121.037 -8.8291 177.024c-14.7666 12.4961 -30.0195 24.4248 -45.4883 35.8926c-68.5439 50.8086 -142.334 95.0547 -204.865 153.596c-57.293 53.6357 -105.001 121.843 -116.263 201.028c-11.3184 79.5752 21.1162 160.467 77.2344 216.724
c101.081 101.322 316.893 149.889 421.617 28.0742c47.9385 -55.7598 52.1953 -138.602 16.2559 -201.821c-36.0771 -63.457 -111.488 -99.3252 -182.086 -72.3564c-17.4658 6.67188 3.3877 18.335 14.4336 14.0752zM379.146 -65.5566
c-7.57617 7.78223 -15.4141 15.3291 -23.4336 22.6924c-5.85938 -14.249 -10.0596 -29.1855 -12.1279 -44.6934c-5.64355 -42.3525 4.05371 -91.5156 38.875 -119.637c17.7959 -14.373 39.6709 -18.9775 59.8711 -6.59473c18.4766 11.3291 20.1191 29.7314 12.1953 48.2969
c-16.1006 37.7236 -47.1377 70.9102 -75.3799 99.9355z" />
    <glyph glyph-name="T" unicode="T" horiz-adv-x="495" 
d="M937.109 809.82c28.9336 -15.3057 54.0986 -43.3447 56.9932 -77.0957c2.87305 -33.6162 -18.8955 -64.916 -50.9756 -74.1387c-7.86719 -2.2627 -22.1162 -3.125 -28.0928 4.2002c-6.10059 7.47754 0.262695 12.9473 7.36719 16.0156
c42.1221 18.1748 30.2461 74.9424 3.23535 99.751c-33.4492 30.7139 -85.0137 30.0508 -127.547 27.3838c-159.126 -9.97754 -297.271 -99.0166 -428.445 -182.94c0.0888672 -0.734375 0.166992 -1.47266 0.163086 -2.24219
c-0.99707 -141.316 -5.15039 -282.643 1.51074 -423.898c3.25586 -69.0762 9.41016 -137.975 18.2529 -206.562c4.5332 -35.1729 10.0664 -70.2676 16.1182 -105.214c5.94824 -34.3818 14.2695 -69.1074 17.0898 -103.915
c1.70215 -21.0127 -45.8789 -18.6543 -53.1289 -4.09668c-31.3633 62.9541 -44.207 137.826 -55.7852 206.618c-11.6807 69.4131 -18.2568 139.585 -22.4463 209.821c-7.5166 125.964 -6.66895 252.396 -2.44043 378.513
c-20.5625 -12.6982 -41.2988 -25.1055 -62.4219 -36.8428c-37.1455 -20.6406 -75.4932 -42.3311 -116.781 -53.4512c-56.8203 -15.3018 -142.585 -4.89844 -152.723 66.873c-1.35156 9.56641 23.6943 9.94629 25.5498 0c9.64844 -51.6914 68.0439 -66.2803 111.932 -52.0107
c47.0488 15.2988 90.7031 45.4277 132.569 71.165c21.1621 13.0107 42.1787 26.4258 63.1631 39.9863c0.166992 4.33789 0.326172 8.67578 0.5 13.0137c0.762695 19.1719 30.5547 26.3721 53.3379 21.9346c108.424 70.3525 218.426 138.918 344.968 170.931
c41.7949 10.5742 84.5088 17.1221 127.663 18.002c40.7666 0.826172 83.7041 -2.40137 120.374 -21.8008z" />
    <glyph glyph-name="U" unicode="U" horiz-adv-x="762" 
d="M454.425 541.81c1.02148 28.8516 73.6367 28.2412 72.9277 -0.000976562c-2.09668 -84.3848 -4.23242 -168.852 -2.58691 -253.265c2.70312 -138.684 11.4287 -287.009 64.7588 -416.769c5.29199 -12.876 11.0244 -27.6357 22.5879 -36.3086
c12.1523 -9.11621 27.2666 -5.08301 39.8018 1.43262c29.3447 15.2529 45.8389 49.4365 60.375 77.6465c31.3281 60.79 51.8164 126.5 61.3369 194.179c1.51465 10.7656 28.2529 9.95312 26.9365 0c-11.0244 -83.498 -37.6025 -169.341 -84.0654 -240.223
c-16.3906 -25 -38.0029 -48.9678 -67.1143 -58.623c-32.1826 -10.6699 -68.207 -3.93359 -93.6855 18.4844c-26.9824 23.748 -42.4375 60.9639 -54.5361 93.9375c-13.1982 35.9814 -22.1191 73.127 -29.0078 110.79c-22.4531 122.797 -24.7266 248.144 -21.9814 373.008
c-14.8906 -72.6299 -28.7812 -145.473 -46.0518 -217.589c-23.3291 -97.417 -50.0781 -196.068 -110.151 -277.893c-26.0781 -35.5273 -66.8691 -47.5342 -108.055 -30.2852c-43.1465 18.0693 -69.2783 58.6445 -89.9971 98.5098
c-45.5654 87.6836 -70.3486 186.726 -88.3467 283.323c-18.7178 100.45 -29.0859 202.429 -37.5137 304.188c-2.39746 28.958 73.1094 30.1143 75.9863 -0.000976562c9.91016 -103.767 18.21 -207.753 36.79 -310.444c16.2529 -89.8125 41.5645 -176.617 76.4824 -260.914
c13.0957 -31.6113 29.377 -78.4648 62.9463 -94.3164c18.9766 -8.95996 40.8193 13.7383 52.1562 27.0293c15.3018 17.9307 26.9756 40.3125 37.1768 61.4355c41.2842 85.46 62.2725 181.688 82.5088 273.87c20.002 91.1143 37.3262 182.817 60.127 273.3
c0.0634766 1.83008 0.126953 3.66406 0.194336 5.49805z" />
    <glyph glyph-name="U" unicode="&#xdc;" horiz-adv-x="762" 
d="M454.425 541.81c1.02148 28.8516 73.6367 28.2412 72.9277 -0.000976562c-2.09668 -84.3848 -4.23242 -168.852 -2.58691 -253.265c2.70312 -138.684 11.4287 -287.009 64.7588 -416.769c5.29199 -12.876 11.0244 -27.6357 22.5879 -36.3086
c12.1523 -9.11621 27.2666 -5.08301 39.8018 1.43262c29.3447 15.2529 45.8389 49.4365 60.375 77.6465c31.3281 60.79 51.8164 126.5 61.3369 194.179c1.51465 10.7656 28.2529 9.95312 26.9365 0c-11.0244 -83.498 -37.6025 -169.341 -84.0654 -240.223
c-16.3906 -25 -38.0029 -48.9678 -67.1143 -58.623c-32.1826 -10.6699 -68.207 -3.93359 -93.6855 18.4844c-26.9824 23.748 -42.4375 60.9639 -54.5361 93.9375c-13.1982 35.9814 -22.1191 73.127 -29.0078 110.79c-22.4531 122.797 -24.7266 248.144 -21.9814 373.008
c-14.8906 -72.6299 -28.7812 -145.473 -46.0518 -217.589c-23.3291 -97.417 -50.0781 -196.068 -110.151 -277.893c-26.0781 -35.5273 -66.8691 -47.5342 -108.055 -30.2852c-43.1465 18.0693 -69.2783 58.6445 -89.9971 98.5098
c-45.5654 87.6836 -70.3486 186.726 -88.3467 283.323c-18.7178 100.45 -29.0859 202.429 -37.5137 304.188c-2.39746 28.958 73.1094 30.1143 75.9863 -0.000976562c9.91016 -103.767 18.21 -207.753 36.79 -310.444c16.2529 -89.8125 41.5645 -176.617 76.4824 -260.914
c13.0957 -31.6113 29.377 -78.4648 62.9463 -94.3164c18.9766 -8.95996 40.8193 13.7383 52.1562 27.0293c15.3018 17.9307 26.9756 40.3125 37.1768 61.4355c41.2842 85.46 62.2725 181.688 82.5088 273.87c20.002 91.1143 37.3262 182.817 60.127 273.3
c0.0634766 1.83008 0.126953 3.66406 0.194336 5.49805z" />
    <glyph glyph-name="U" unicode="&#xdb;" horiz-adv-x="762" 
d="M454.425 541.81c1.02148 28.8516 73.6367 28.2412 72.9277 -0.000976562c-2.09668 -84.3848 -4.23242 -168.852 -2.58691 -253.265c2.70312 -138.684 11.4287 -287.009 64.7588 -416.769c5.29199 -12.876 11.0244 -27.6357 22.5879 -36.3086
c12.1523 -9.11621 27.2666 -5.08301 39.8018 1.43262c29.3447 15.2529 45.8389 49.4365 60.375 77.6465c31.3281 60.79 51.8164 126.5 61.3369 194.179c1.51465 10.7656 28.2529 9.95312 26.9365 0c-11.0244 -83.498 -37.6025 -169.341 -84.0654 -240.223
c-16.3906 -25 -38.0029 -48.9678 -67.1143 -58.623c-32.1826 -10.6699 -68.207 -3.93359 -93.6855 18.4844c-26.9824 23.748 -42.4375 60.9639 -54.5361 93.9375c-13.1982 35.9814 -22.1191 73.127 -29.0078 110.79c-22.4531 122.797 -24.7266 248.144 -21.9814 373.008
c-14.8906 -72.6299 -28.7812 -145.473 -46.0518 -217.589c-23.3291 -97.417 -50.0781 -196.068 -110.151 -277.893c-26.0781 -35.5273 -66.8691 -47.5342 -108.055 -30.2852c-43.1465 18.0693 -69.2783 58.6445 -89.9971 98.5098
c-45.5654 87.6836 -70.3486 186.726 -88.3467 283.323c-18.7178 100.45 -29.0859 202.429 -37.5137 304.188c-2.39746 28.958 73.1094 30.1143 75.9863 -0.000976562c9.91016 -103.767 18.21 -207.753 36.79 -310.444c16.2529 -89.8125 41.5645 -176.617 76.4824 -260.914
c13.0957 -31.6113 29.377 -78.4648 62.9463 -94.3164c18.9766 -8.95996 40.8193 13.7383 52.1562 27.0293c15.3018 17.9307 26.9756 40.3125 37.1768 61.4355c41.2842 85.46 62.2725 181.688 82.5088 273.87c20.002 91.1143 37.3262 182.817 60.127 273.3
c0.0634766 1.83008 0.126953 3.66406 0.194336 5.49805z" />
    <glyph glyph-name="U" unicode="&#xda;" horiz-adv-x="762" 
d="M454.425 541.81c1.02148 28.8516 73.6367 28.2412 72.9277 -0.000976562c-2.09668 -84.3848 -4.23242 -168.852 -2.58691 -253.265c2.70312 -138.684 11.4287 -287.009 64.7588 -416.769c5.29199 -12.876 11.0244 -27.6357 22.5879 -36.3086
c12.1523 -9.11621 27.2666 -5.08301 39.8018 1.43262c29.3447 15.2529 45.8389 49.4365 60.375 77.6465c31.3281 60.79 51.8164 126.5 61.3369 194.179c1.51465 10.7656 28.2529 9.95312 26.9365 0c-11.0244 -83.498 -37.6025 -169.341 -84.0654 -240.223
c-16.3906 -25 -38.0029 -48.9678 -67.1143 -58.623c-32.1826 -10.6699 -68.207 -3.93359 -93.6855 18.4844c-26.9824 23.748 -42.4375 60.9639 -54.5361 93.9375c-13.1982 35.9814 -22.1191 73.127 -29.0078 110.79c-22.4531 122.797 -24.7266 248.144 -21.9814 373.008
c-14.8906 -72.6299 -28.7812 -145.473 -46.0518 -217.589c-23.3291 -97.417 -50.0781 -196.068 -110.151 -277.893c-26.0781 -35.5273 -66.8691 -47.5342 -108.055 -30.2852c-43.1465 18.0693 -69.2783 58.6445 -89.9971 98.5098
c-45.5654 87.6836 -70.3486 186.726 -88.3467 283.323c-18.7178 100.45 -29.0859 202.429 -37.5137 304.188c-2.39746 28.958 73.1094 30.1143 75.9863 -0.000976562c9.91016 -103.767 18.21 -207.753 36.79 -310.444c16.2529 -89.8125 41.5645 -176.617 76.4824 -260.914
c13.0957 -31.6113 29.377 -78.4648 62.9463 -94.3164c18.9766 -8.95996 40.8193 13.7383 52.1562 27.0293c15.3018 17.9307 26.9756 40.3125 37.1768 61.4355c41.2842 85.46 62.2725 181.688 82.5088 273.87c20.002 91.1143 37.3262 182.817 60.127 273.3
c0.0634766 1.83008 0.126953 3.66406 0.194336 5.49805z" />
    <glyph glyph-name="V" unicode="V" horiz-adv-x="641" 
d="M268.706 -62.5781c35.2158 -4.37402 68.6113 29.7197 89.9297 53.4033c39.1846 43.5264 66.5967 95.0869 88.7021 148.899c-11.3965 6.54102 -22.4668 13.7275 -33.1113 21.6094c-69.9912 51.8086 -118.075 131.132 -131.703 217.135
c-12.6523 79.8447 7.22559 164.748 53.2207 231.143c36.9111 53.2734 119.831 125.205 182.586 63.7344c27.6172 -27.0537 36.1836 -70.1934 39.5742 -107.126c4.25977 -46.4062 -0.199219 -93.7207 -5.90332 -139.818
c-11.7412 -94.9268 -35.8652 -188.371 -70.7295 -277.421c-0.542969 -1.38672 -1.11719 -2.75977 -1.66699 -4.14648c56.8105 -29.8945 122.641 -43.3027 189.705 -35.418c12.418 1.46094 23.5449 -11.6914 6.71777 -13.8906
c-69.5156 -9.07715 -140.837 1.55664 -203.844 31.2383c-14.1709 -33.4883 -30.3916 -66.0078 -49.1133 -97.2607c-20.5518 -34.3105 -45.2998 -68.5576 -78.0752 -92.1426c-32.1367 -23.127 -72.0664 -32.7393 -110.762 -22.4629
c-40.3584 10.7158 -72.1543 39.4189 -97.9521 71.0479c-59.1475 72.5127 -89.4463 166.152 -113.549 255.166c-25.7236 95.0049 -41.8418 192.309 -57.5732 289.364c-2.61035 16.1074 27.3271 21.1836 37.1631 21.1836c14.2734 0 34.499 -4.75977 37.1631 -21.1826
c15.4727 -95.459 30.6006 -191.17 54.9375 -284.862c22.2441 -85.627 51.1318 -171.431 100.298 -245.625c16.5508 -24.9717 41.792 -58.5732 73.9854 -62.5674zM322.448 329.97c23.7549 -72.4922 71.7109 -131.696 132.618 -170.813
c4.77051 12.3828 9.32812 24.8398 13.7051 37.3184c28.3057 80.7139 47.9141 164.603 56.9131 249.701c4.2002 39.7168 7.22949 80.1709 3.54395 120.044c-3.19629 34.5986 -11.0498 78.6494 -39.4482 102.287c-35.2754 29.3594 -79.3838 -8.00879 -103.337 -34.5088
c-24.5244 -27.125 -43.668 -58.9463 -57.1182 -92.9131c-26.5781 -67.1143 -29.3799 -142.454 -6.87695 -211.115z" />
    <glyph glyph-name="W" unicode="W" horiz-adv-x="931" 
d="M61.7168 90.5781c11.9746 -45.8672 41.2842 -134.187 104.195 -121.48c65.7705 13.2803 95.708 86.3926 116.182 142.199c24.6455 67.1709 42.9658 136.421 55.2207 206.905c0.0390625 0.212891 0.141602 0.393555 0.202148 0.602539
c2.11719 27.8096 76.3047 27.9336 78.1562 -2.25195c4.69629 -76.6104 11.709 -154.873 42.2744 -226.18c25.1309 -58.626 70.083 -111.481 138.436 -112.375c128.089 -1.67383 208.785 132.984 237.782 241.493c32.8564 122.974 14.4219 288.236 -82.4277 379.549
c-44.835 42.2705 -108.725 66.4932 -169.28 46.7178c-55.5439 -18.1396 -99.5312 -64.834 -118.721 -119.463c-21.7793 -61.9961 -7.63379 -129.966 39.6982 -176.078c48.5312 -47.2822 119.423 -57.3027 181.528 -33.0801
c9.74414 3.80273 28.1396 -6.33105 12.7559 -12.4395c-70.8037 -28.1074 -156.768 -18.3389 -213.985 34.084c-60.042 55.0117 -72.7549 140.776 -37.5283 213.232c27.5107 56.5869 81.2881 99.8721 142.997 112.904c65.5039 13.8369 133.509 -10.1133 182.54 -54.0723
c113.933 -102.146 123.187 -288.988 84.8105 -426.935c-18.3984 -66.1318 -51.7441 -131.097 -104.439 -176.407c-54.4971 -46.8574 -128.198 -68.7568 -199.505 -57.9629c-139.387 21.1055 -188.425 155.327 -206.66 281.543
c-13.3262 -56.707 -30.7246 -112.716 -53.9082 -165.592c-26.3936 -60.1973 -70.8525 -109.505 -139.737 -115.017c-71.626 -5.73242 -120.104 52.8799 -145.406 112.929c-29.3662 69.6963 -32.7324 148.48 -31.7539 223.101
c1.07129 81.6045 9.98145 162.609 27.4043 242.337c3.37305 15.4268 20.7861 19.917 34.9463 19.917c9.29688 0 37.9326 -4.95215 34.9463 -19.917c-15.71 -78.6748 -25.7129 -158.715 -27.9297 -238.946c-1.84082 -66.8057 0.251953 -134.363 17.207 -199.317z" />
    <glyph glyph-name="X" unicode="X" horiz-adv-x="508" 
d="M-26.877 15.333c10.0244 20.9238 19.1592 42.3145 28.2969 63.6328c14.0469 32.7822 27.7275 65.7207 41.4404 98.6416c-32.2646 110.729 -46.7295 227.259 -57.25 341.227c-1.61426 17.4805 28.2666 22.6836 39.7949 22.6836c14.5576 0 37.915 -5.0332 39.7949 -22.6836
c7.87793 -73.9424 16.0615 -148.037 28.9902 -221.299c47.0059 104.504 101.457 206.057 178.854 291.304c46.417 51.124 101.879 99.0986 167.691 122.86c53.5605 19.3389 135.183 16.6328 155.539 -48.5518c3.68555 -11.8008 -24.0283 -13.9326 -27.043 -4.24902
c-13.4014 43.0439 -58.3496 54.4766 -98.3184 44.0947c-38.1348 -9.91016 -73.5166 -31.8633 -104.135 -56.1465c-108.441 -86.0098 -180.114 -209.909 -237.262 -333.745c-9.22266 -19.9912 -18.0938 -40.1318 -26.7979 -60.3467
c12.0742 -58.3428 27.6494 -115.841 47.8291 -171.974c21.7227 -60.4248 47.9316 -128.415 92.8486 -175.673c22.6123 -23.79 51.6455 -45.6826 85.9668 -45.4912c36.6025 0.202148 69.1084 21.8184 92.9629 48.0879c47.3535 52.1494 73.3789 126.763 89.71 194.076
c2.13184 8.78613 26.9434 7.08398 24.3721 -3.83008c-18.7246 -79.4229 -51.7236 -174.964 -120.774 -224.751c-58.584 -42.2383 -135.655 -35.6055 -195.065 1.92578c-63.457 40.0928 -102.933 114.011 -133.012 180.43c-12.3613 27.2988 -23.1689 55.2002 -32.668 83.5557
c-4.6748 -11.1162 -9.37109 -22.2295 -14.1309 -33.3145c-14.5293 -33.8467 -28.6533 -68.5723 -46.0449 -101.07c-11.8398 -22.1162 -28.3623 -41.2666 -54.6074 -44.0547c-12.2725 -1.30566 -23.3037 11.8438 -6.64648 13.7383
c20.5693 2.33789 31.6289 24.1562 39.6631 40.9229z" />
    <glyph glyph-name="Y" unicode="Y" horiz-adv-x="543" 
d="M431.773 75.0381c14.8662 3.9834 29.7188 8.0293 44.4854 12.3955c28.4014 8.38574 63.5 15.8066 80.2881 42.708c4.88477 7.82129 29.0303 4.78125 23.8369 -3.74609c-13.5459 -22.2471 -36.1689 -33.4023 -60.0303 -41.7949
c-28.9766 -10.1943 -58.7539 -18.1543 -88.418 -26.1602c0.208984 -62.6348 -3.48047 -125.191 -15.9658 -186.709c-11.8369 -58.3389 -30.7432 -118.979 -66.5088 -167.38c-31.1895 -42.1992 -77.6426 -67.3662 -130.774 -63.4043
c-48.4961 3.61426 -93.0684 30.3945 -116.958 73.0557c-57.2002 102.142 10.9326 216.241 97.8643 273.867c49.7197 32.9561 106.966 52.6143 164.063 68.7676c-1.29102 30.6826 -3.39453 61.2695 -5.76367 91.5615c-5.1543 65.8379 -12.1709 131.335 -20.248 196.715
c-3.74219 -24.7158 -8.56934 -49.1875 -14.2764 -73.1445c-15.0078 -62.9824 -40.6924 -128.969 -88.6523 -174.46c-44.9199 -42.6143 -114.535 -56.9443 -167.543 -20.2998c-58.2578 40.2734 -75.291 122.389 -85.1201 187.992
c-11.376 75.9043 -9.16211 153.21 -2.7627 229.465c2.35156 28.0361 72.3281 26.8301 70.4414 0c-5.21777 -74.1807 -9.22266 -148.705 -1.78125 -222.893c3.32715 -33.1719 8.85352 -66.582 17.5117 -98.7969c7.17969 -26.71 16.377 -54.9268 35.0381 -75.9893
c51.543 -58.1719 119.037 9.6875 147.967 56.3564c32.1328 51.8408 48.4492 111.694 58.4941 171.353c8.6084 51.1279 14.2061 103.192 12.7734 155.086c-2.38379 16.9229 -4.7959 33.8457 -7.23633 50.7725c-2.37695 16.4727 27.5957 21.5771 37.8535 21.5771
c14.8975 0 34.665 -4.89453 37.8535 -21.5762c28.5039 -149.194 41.8232 -303.4 43.5684 -455.318zM340.696 -207.602c22.0449 80.1963 26.2061 163.857 23.5879 247.065c-46.5557 -13.9824 -92.2559 -30.7461 -133.835 -56.3457
c-87.5957 -53.9365 -160.201 -169.228 -98.2305 -269.443c25.167 -40.6924 81.6758 -71.7539 128.781 -50.0742c47.8398 22.0166 66.8379 82.0156 79.6963 128.798z" />
    <glyph glyph-name="Y" unicode="&#x178;" horiz-adv-x="543" 
d="M431.773 75.0381c14.8662 3.9834 29.7188 8.0293 44.4854 12.3955c28.4014 8.38574 63.5 15.8066 80.2881 42.708c4.88477 7.82129 29.0303 4.78125 23.8369 -3.74609c-13.5459 -22.2471 -36.1689 -33.4023 -60.0303 -41.7949
c-28.9766 -10.1943 -58.7539 -18.1543 -88.418 -26.1602c0.208984 -62.6348 -3.48047 -125.191 -15.9658 -186.709c-11.8369 -58.3389 -30.7432 -118.979 -66.5088 -167.38c-31.1895 -42.1992 -77.6426 -67.3662 -130.774 -63.4043
c-48.4961 3.61426 -93.0684 30.3945 -116.958 73.0557c-57.2002 102.142 10.9326 216.241 97.8643 273.867c49.7197 32.9561 106.966 52.6143 164.063 68.7676c-1.29102 30.6826 -3.39453 61.2695 -5.76367 91.5615c-5.1543 65.8379 -12.1709 131.335 -20.248 196.715
c-3.74219 -24.7158 -8.56934 -49.1875 -14.2764 -73.1445c-15.0078 -62.9824 -40.6924 -128.969 -88.6523 -174.46c-44.9199 -42.6143 -114.535 -56.9443 -167.543 -20.2998c-58.2578 40.2734 -75.291 122.389 -85.1201 187.992
c-11.376 75.9043 -9.16211 153.21 -2.7627 229.465c2.35156 28.0361 72.3281 26.8301 70.4414 0c-5.21777 -74.1807 -9.22266 -148.705 -1.78125 -222.893c3.32715 -33.1719 8.85352 -66.582 17.5117 -98.7969c7.17969 -26.71 16.377 -54.9268 35.0381 -75.9893
c51.543 -58.1719 119.037 9.6875 147.967 56.3564c32.1328 51.8408 48.4492 111.694 58.4941 171.353c8.6084 51.1279 14.2061 103.192 12.7734 155.086c-2.38379 16.9229 -4.7959 33.8457 -7.23633 50.7725c-2.37695 16.4727 27.5957 21.5771 37.8535 21.5771
c14.8975 0 34.665 -4.89453 37.8535 -21.5762c28.5039 -149.194 41.8232 -303.4 43.5684 -455.318zM340.696 -207.602c22.0449 80.1963 26.2061 163.857 23.5879 247.065c-46.5557 -13.9824 -92.2559 -30.7461 -133.835 -56.3457
c-87.5957 -53.9365 -160.201 -169.228 -98.2305 -269.443c25.167 -40.6924 81.6758 -71.7539 128.781 -50.0742c47.8398 22.0166 66.8379 82.0156 79.6963 128.798z" />
    <glyph glyph-name="Y" unicode="&#xdd;" horiz-adv-x="543" 
d="M431.773 75.0381c14.8662 3.9834 29.7188 8.0293 44.4854 12.3955c28.4014 8.38574 63.5 15.8066 80.2881 42.708c4.88477 7.82129 29.0303 4.78125 23.8369 -3.74609c-13.5459 -22.2471 -36.1689 -33.4023 -60.0303 -41.7949
c-28.9766 -10.1943 -58.7539 -18.1543 -88.418 -26.1602c0.208984 -62.6348 -3.48047 -125.191 -15.9658 -186.709c-11.8369 -58.3389 -30.7432 -118.979 -66.5088 -167.38c-31.1895 -42.1992 -77.6426 -67.3662 -130.774 -63.4043
c-48.4961 3.61426 -93.0684 30.3945 -116.958 73.0557c-57.2002 102.142 10.9326 216.241 97.8643 273.867c49.7197 32.9561 106.966 52.6143 164.063 68.7676c-1.29102 30.6826 -3.39453 61.2695 -5.76367 91.5615c-5.1543 65.8379 -12.1709 131.335 -20.248 196.715
c-3.74219 -24.7158 -8.56934 -49.1875 -14.2764 -73.1445c-15.0078 -62.9824 -40.6924 -128.969 -88.6523 -174.46c-44.9199 -42.6143 -114.535 -56.9443 -167.543 -20.2998c-58.2578 40.2734 -75.291 122.389 -85.1201 187.992
c-11.376 75.9043 -9.16211 153.21 -2.7627 229.465c2.35156 28.0361 72.3281 26.8301 70.4414 0c-5.21777 -74.1807 -9.22266 -148.705 -1.78125 -222.893c3.32715 -33.1719 8.85352 -66.582 17.5117 -98.7969c7.17969 -26.71 16.377 -54.9268 35.0381 -75.9893
c51.543 -58.1719 119.037 9.6875 147.967 56.3564c32.1328 51.8408 48.4492 111.694 58.4941 171.353c8.6084 51.1279 14.2061 103.192 12.7734 155.086c-2.38379 16.9229 -4.7959 33.8457 -7.23633 50.7725c-2.37695 16.4727 27.5957 21.5771 37.8535 21.5771
c14.8975 0 34.665 -4.89453 37.8535 -21.5762c28.5039 -149.194 41.8232 -303.4 43.5684 -455.318zM340.696 -207.602c22.0449 80.1963 26.2061 163.857 23.5879 247.065c-46.5557 -13.9824 -92.2559 -30.7461 -133.835 -56.3457
c-87.5957 -53.9365 -160.201 -169.228 -98.2305 -269.443c25.167 -40.6924 81.6758 -71.7539 128.781 -50.0742c47.8398 22.0166 66.8379 82.0156 79.6963 128.798z" />
    <glyph glyph-name="Z" unicode="Z" horiz-adv-x="617" 
d="M111.913 525.44c43.9834 9.85059 86.7178 24.5537 129.524 38.4834c75.2939 24.4824 162.549 55.5654 242.273 35.5527c28.5684 -7.17188 57.6514 -23.6094 67.0195 -53.4541c9.89258 -31.5156 -3.33105 -66.5361 -19.8887 -93.1963
c-39.9473 -64.3154 -99.1055 -116.241 -150.709 -170.951c-21.5488 -22.8467 -42.8564 -45.8779 -63.8164 -69.2109c10.2227 0.634766 20.4414 1.27344 30.6572 1.94336c17.5156 1.15234 17.0723 -15.2383 0 -16.3027
c-15.2988 -0.950195 -30.5977 -1.85156 -45.8965 -2.7168c-26.3301 -29.7744 -52.0283 -60.1094 -76.7979 -91.2949c-47.5625 -59.8857 -93.4053 -122.995 -124.684 -193.146c-15.3877 -34.5098 -26.3662 -70.4951 -32.4639 -107.796
c-2.97949 -18.2324 -3.65332 -36.915 6.53711 -53.1074c1.44727 -2.29492 2.77344 -4.56152 4.85547 -6.39551c1.07812 -0.950195 -0.180664 -1.91113 -0.804688 -2.2832c0.525391 0.255859 1.82324 0.833984 4.60742 1.89453
c7.60156 2.89062 14.8447 6.45215 22.1055 10.1055c66.4443 33.4238 124.34 82.6328 180.362 130.927c55.4941 47.8398 109.463 97.6299 167.756 142.106c56.5791 43.168 117.113 83.9453 187.268 100.453c14.21 3.34473 26.0254 -11.3369 7.60547 -15.7178
c-85.1475 -20.25 -159.289 -82.5615 -224.623 -137.886c-63.1309 -53.4619 -122.693 -111.031 -187.261 -162.815c-28.2559 -22.6621 -57.5127 -43.4512 -87.0176 -64.4004c-29.9551 -21.2686 -60.584 -42.0049 -99.1377 -31.1221
c-86.7764 24.4922 -51.9727 134.537 -27.583 193.352c30.125 72.6475 76.957 137.428 125.062 199.098c22.042 28.2529 45.0518 55.7148 68.7002 82.627c-17.9941 -1.29492 -36.2969 -1.23438 -51.7803 6.06934c-5.90918 2.78809 -4.13184 8.00977 0.000976562 11.0811
c5.26367 3.91602 13.9756 2.54688 19.4385 0c10.1201 -4.7207 28.4619 -0.467773 39.4795 0.0751953c2.84863 0.138672 5.69727 0.297852 8.54199 0.443359c25.1484 28.0186 50.9531 55.4551 77.1768 82.4521c55.3838 57.0195 116.976 108.641 167.94 169.796
c20.5947 24.7129 61.124 71.9746 34.6094 105.261c-25.3477 31.8242 -84.1689 26.8652 -119.239 21.6758c-80.2988 -11.8867 -155.721 -44.4033 -233.618 -65.7676c-36.1729 -9.9248 -72.9668 -17.7139 -110.438 -20.4277
c-29.1992 -2.11719 -65.4111 -4.41895 -86.9316 19.3711c-8.33887 9.21875 15.625 13.748 21.584 7.18945c16.5361 -18.1855 46.0156 -13.9326 68.2031 -11.9033c20.6475 1.88672 41.1602 5.41211 61.3818 9.93848z" />
    <glyph glyph-name="bracketleft" unicode="[" horiz-adv-x="282" 
d="M227.073 -136.716c7.66895 -6.43066 6.06543 -13.7568 -1.97949 -18.9922c-28.9795 -18.8672 -72.2969 -13.7881 -101.028 3.22754c-32.4199 19.2002 -45.8779 52.1064 -53.3018 87.4004c-14.5781 69.3027 -14.0527 142.33 -16.8232 212.811
c-2.87305 73.0703 -4.58594 146.374 -3.70605 219.504c0.854492 71.3037 1.61719 144.579 16.5225 214.574c5.5332 25.9932 14.6133 53.1533 42.0928 62.3223c24.3398 8.12305 48.79 4.01953 72.7041 -3.46094c15.6992 -4.91602 -3.04004 -15.1064 -12.6172 -12.3047
c-11.124 3.25293 -30.7002 10.5029 -40.1211 1.41211c-8.21191 -7.92383 -7.875 -24.3926 -8.22949 -34.8428c-1.08496 -31.9873 -2.47168 -63.8936 -2.1416 -95.9307c1.20605 -117.284 7.20801 -234.153 12.9043 -351.278
c2.78809 -57.2676 4.81348 -114.737 12.1562 -171.646c3.37305 -26.1494 6.58301 -52.7881 17.9297 -76.873c4.5332 -9.62305 18.8135 -35.8535 32.8916 -32.1934c10.1055 2.62793 24.0635 3.55371 32.7471 -3.72852z" />
    <glyph glyph-name="backslash" unicode="\" horiz-adv-x="472" 
d="M422.431 -139c1.60645 -21.8184 -40.6719 -15.0742 -50.1426 -7.73926c-24.3438 18.8564 -41.9512 49.6953 -57.2461 76.0039c-15.5859 26.8164 -30.3203 54.0938 -43.9805 81.9385c-26.7061 54.4375 -51.3623 109.847 -75.1562 165.61
c-25.1172 58.8672 -49.8721 117.891 -74.2832 177.056c-24.8477 60.2256 -50.8799 120.101 -70.5879 182.231c-10.585 33.3643 63.3682 36.8975 75.4072 11.8477c28.4336 -59.1475 51.5996 -120.604 76.5391 -181.292c24.3184 -59.1797 48.9814 -118.218 74.0098 -177.103
c23.6416 -55.625 47.2471 -111.293 73.1016 -165.933c13.0742 -27.6357 26.1699 -55.2715 39.915 -82.5771c12.2236 -24.2832 30.3916 -52.4473 32.4238 -80.0439z" />
    <glyph glyph-name="bracketright" unicode="]" horiz-adv-x="282" 
d="M220.771 552.107c11.3574 -70.8428 11.2949 -144.657 11.1455 -216.248c-0.163086 -73.2012 -2.10352 -146.346 -5.02637 -219.483c-2.7207 -68.0576 -1.51855 -141.844 -22.1416 -207.426c-9.44922 -30.04 -29.3379 -54.916 -58.7539 -67.1963
c-27.3555 -11.4219 -63.1709 -14.3018 -89.0146 2.52539c-8.25391 5.37402 -9.52734 12.6631 -1.98633 18.998c8.70801 7.31738 22.5381 6.38086 32.7471 3.72754c17.4268 -4.5332 33.0869 31.3496 37.4424 42.8135c10.7334 28.2422 13.0498 60.2861 16.1533 90.1104
c5.94824 57.1865 7.76465 114.773 10.5566 172.173c2.88379 59.2402 6.61914 118.413 8.52441 177.699c1.84473 57.4629 3.71387 114.954 3.25293 172.456c-0.223633 27.7168 -0.280273 55.8525 -2.79883 83.4668c-0.766602 8.4209 -2.60742 23.0488 -11.3154 27.2734
c-9.56641 4.64355 -27.0645 -1.90039 -36.4219 -4.63477c-9.59863 -2.80566 -28.3135 7.39258 -12.6172 12.3057c26.0391 8.14746 55.416 13.1094 80.8877 0.0527344c30.3564 -15.5615 34.5635 -58.6582 39.3662 -88.6133z" />
    <glyph glyph-name="asciicircum" unicode="^" horiz-adv-x="285" 
d="M234.841 359.717c2.60742 -25.1738 -59.3047 -25.2607 -67.0127 -5.16602c-8.08691 21.1123 -13.0459 43.1074 -20.4414 64.4502c-1.45801 4.20996 -3.01855 8.38477 -4.64355 12.5352c-2.20312 -4.27734 -4.39551 -8.56543 -6.59473 -12.8467
c-10.6875 -20.7969 -21.9316 -41.6396 -37.4932 -59.2441c-8.33203 -9.4248 -50.4932 -11.918 -48.5918 7.50195c3.14941 32.1475 19.668 64.167 32.8096 93.3486c5.54395 12.3047 11.4287 26.9893 21.0488 36.8535c13.3125 13.6494 36.3438 15.9375 53.916 11.9717
c29.9229 -6.75391 43.4941 -35.7832 54.1533 -61.8721c11.3613 -27.8096 19.7568 -57.6514 22.8496 -87.5322z" />
    <glyph glyph-name="underscore" unicode="_" horiz-adv-x="363" 
d="M276.06 -37.6035c11.2227 -0.467773 36.8604 -4.34863 36.4668 -20.7861c-0.382812 -16.1074 -24.1377 -20.875 -36.4678 -20.7861c-67.749 0.486328 -137.069 -2.10645 -204.531 4.27148c-7.98145 0.755859 -21.5273 6.33887 -21.5273 16.1182
c0 10.123 13.6211 14.8906 21.5273 16.1143c66.4795 10.2969 137.485 7.86035 204.532 5.06836z" />
    <glyph glyph-name="grave" unicode="`" horiz-adv-x="160" 
d="M105.796 496.227c0.149414 -18.459 2.85449 -36.3564 3.72754 -54.6025c0.723633 -15.0859 -28.3838 -11.0283 -35.166 -5.43066c-15.4902 12.7803 -19.335 34.1191 -21.9775 53.1602c-3.18164 22.9492 -3.38379 45.9697 0.681641 68.7666
c3.74609 21.0059 56.1582 21.8076 55.2041 0c-0.901367 -20.6152 -2.63281 -41.249 -2.46973 -61.8936z" />
    <glyph glyph-name="a" unicode="a" horiz-adv-x="344" 
d="M342.388 107.481c2.97559 8.8252 27.3877 7.02637 24.6387 -3.86719c-9.3252 -36.9639 -24.0527 -76.3545 -54.5225 -101.22c-27.9121 -22.7832 -65.9512 -27.749 -95.9131 -5.94824c-35.1836 25.6025 -46.7754 70.2393 -53.2422 111.077
c-0.152344 0.960938 -0.248047 1.93262 -0.393555 2.89355c-8.28223 -30.4551 -18.5684 -60.1553 -33.207 -87.1455c-10.751 -19.8174 -24.6201 -37.4004 -47.4668 -43.0088c-22.0098 -5.40234 -47.5381 2.47949 -63.9287 17.8525
c-36.2197 33.9668 -40.6221 99.4316 -30.8672 144.81c11.4463 53.2598 42.6357 96.1084 99.9102 101.961c25.8867 2.64648 51.5039 -2.39062 72.5596 -14.6348c0.255859 3.65723 0.49707 7.31738 0.791016 10.96c2.35156 29.0967 74.6904 28.5576 73.7686 0
c-2.11035 -65.1924 -4.45898 -129.395 10.8574 -193.391c3.04688 -12.7197 6.2998 -27.0361 14.8447 -37.3975c14.1533 -17.1611 34.1123 4.33789 44.0508 16.3311c19.2041 23.1768 28.6602 52.6562 38.1201 80.7275zM117.822 62.1309
c15.5186 40.6885 26.5537 82.9229 36.8506 125.236c-11.3506 11.8652 -26.0244 22.4961 -40.7734 25.3164c-19.3457 3.69922 -36.4111 -9.26172 -46.584 -24.6738c-25.2236 -38.2021 -28.8877 -90.958 -19.1758 -134.641
c2.37695 -10.6875 13.6035 -58.3428 30.3916 -54.5156c10.0771 2.29883 18.9375 20.4492 23.5986 28.7568c6.19629 11.0527 11.1836 22.6943 15.6924 34.5205z" />
    <glyph glyph-name="a" unicode="&#xe5;" horiz-adv-x="344" 
d="M342.388 107.481c2.97559 8.8252 27.3877 7.02637 24.6387 -3.86719c-9.3252 -36.9639 -24.0527 -76.3545 -54.5225 -101.22c-27.9121 -22.7832 -65.9512 -27.749 -95.9131 -5.94824c-35.1836 25.6025 -46.7754 70.2393 -53.2422 111.077
c-0.152344 0.960938 -0.248047 1.93262 -0.393555 2.89355c-8.28223 -30.4551 -18.5684 -60.1553 -33.207 -87.1455c-10.751 -19.8174 -24.6201 -37.4004 -47.4668 -43.0088c-22.0098 -5.40234 -47.5381 2.47949 -63.9287 17.8525
c-36.2197 33.9668 -40.6221 99.4316 -30.8672 144.81c11.4463 53.2598 42.6357 96.1084 99.9102 101.961c25.8867 2.64648 51.5039 -2.39062 72.5596 -14.6348c0.255859 3.65723 0.49707 7.31738 0.791016 10.96c2.35156 29.0967 74.6904 28.5576 73.7686 0
c-2.11035 -65.1924 -4.45898 -129.395 10.8574 -193.391c3.04688 -12.7197 6.2998 -27.0361 14.8447 -37.3975c14.1533 -17.1611 34.1123 4.33789 44.0508 16.3311c19.2041 23.1768 28.6602 52.6562 38.1201 80.7275zM117.822 62.1309
c15.5186 40.6885 26.5537 82.9229 36.8506 125.236c-11.3506 11.8652 -26.0244 22.4961 -40.7734 25.3164c-19.3457 3.69922 -36.4111 -9.26172 -46.584 -24.6738c-25.2236 -38.2021 -28.8877 -90.958 -19.1758 -134.641
c2.37695 -10.6875 13.6035 -58.3428 30.3916 -54.5156c10.0771 2.29883 18.9375 20.4492 23.5986 28.7568c6.19629 11.0527 11.1836 22.6943 15.6924 34.5205z" />
    <glyph glyph-name="a" unicode="&#xe4;" horiz-adv-x="344" 
d="M342.388 107.481c2.97559 8.8252 27.3877 7.02637 24.6387 -3.86719c-9.3252 -36.9639 -24.0527 -76.3545 -54.5225 -101.22c-27.9121 -22.7832 -65.9512 -27.749 -95.9131 -5.94824c-35.1836 25.6025 -46.7754 70.2393 -53.2422 111.077
c-0.152344 0.960938 -0.248047 1.93262 -0.393555 2.89355c-8.28223 -30.4551 -18.5684 -60.1553 -33.207 -87.1455c-10.751 -19.8174 -24.6201 -37.4004 -47.4668 -43.0088c-22.0098 -5.40234 -47.5381 2.47949 -63.9287 17.8525
c-36.2197 33.9668 -40.6221 99.4316 -30.8672 144.81c11.4463 53.2598 42.6357 96.1084 99.9102 101.961c25.8867 2.64648 51.5039 -2.39062 72.5596 -14.6348c0.255859 3.65723 0.49707 7.31738 0.791016 10.96c2.35156 29.0967 74.6904 28.5576 73.7686 0
c-2.11035 -65.1924 -4.45898 -129.395 10.8574 -193.391c3.04688 -12.7197 6.2998 -27.0361 14.8447 -37.3975c14.1533 -17.1611 34.1123 4.33789 44.0508 16.3311c19.2041 23.1768 28.6602 52.6562 38.1201 80.7275zM117.822 62.1309
c15.5186 40.6885 26.5537 82.9229 36.8506 125.236c-11.3506 11.8652 -26.0244 22.4961 -40.7734 25.3164c-19.3457 3.69922 -36.4111 -9.26172 -46.584 -24.6738c-25.2236 -38.2021 -28.8877 -90.958 -19.1758 -134.641
c2.37695 -10.6875 13.6035 -58.3428 30.3916 -54.5156c10.0771 2.29883 18.9375 20.4492 23.5986 28.7568c6.19629 11.0527 11.1836 22.6943 15.6924 34.5205z" />
    <glyph glyph-name="a" unicode="&#xe3;" horiz-adv-x="344" 
d="M342.388 107.481c2.97559 8.8252 27.3877 7.02637 24.6387 -3.86719c-9.3252 -36.9639 -24.0527 -76.3545 -54.5225 -101.22c-27.9121 -22.7832 -65.9512 -27.749 -95.9131 -5.94824c-35.1836 25.6025 -46.7754 70.2393 -53.2422 111.077
c-0.152344 0.960938 -0.248047 1.93262 -0.393555 2.89355c-8.28223 -30.4551 -18.5684 -60.1553 -33.207 -87.1455c-10.751 -19.8174 -24.6201 -37.4004 -47.4668 -43.0088c-22.0098 -5.40234 -47.5381 2.47949 -63.9287 17.8525
c-36.2197 33.9668 -40.6221 99.4316 -30.8672 144.81c11.4463 53.2598 42.6357 96.1084 99.9102 101.961c25.8867 2.64648 51.5039 -2.39062 72.5596 -14.6348c0.255859 3.65723 0.49707 7.31738 0.791016 10.96c2.35156 29.0967 74.6904 28.5576 73.7686 0
c-2.11035 -65.1924 -4.45898 -129.395 10.8574 -193.391c3.04688 -12.7197 6.2998 -27.0361 14.8447 -37.3975c14.1533 -17.1611 34.1123 4.33789 44.0508 16.3311c19.2041 23.1768 28.6602 52.6562 38.1201 80.7275zM117.822 62.1309
c15.5186 40.6885 26.5537 82.9229 36.8506 125.236c-11.3506 11.8652 -26.0244 22.4961 -40.7734 25.3164c-19.3457 3.69922 -36.4111 -9.26172 -46.584 -24.6738c-25.2236 -38.2021 -28.8877 -90.958 -19.1758 -134.641
c2.37695 -10.6875 13.6035 -58.3428 30.3916 -54.5156c10.0771 2.29883 18.9375 20.4492 23.5986 28.7568c6.19629 11.0527 11.1836 22.6943 15.6924 34.5205z" />
    <glyph glyph-name="a" unicode="&#xe2;" horiz-adv-x="344" 
d="M342.388 107.481c2.97559 8.8252 27.3877 7.02637 24.6387 -3.86719c-9.3252 -36.9639 -24.0527 -76.3545 -54.5225 -101.22c-27.9121 -22.7832 -65.9512 -27.749 -95.9131 -5.94824c-35.1836 25.6025 -46.7754 70.2393 -53.2422 111.077
c-0.152344 0.960938 -0.248047 1.93262 -0.393555 2.89355c-8.28223 -30.4551 -18.5684 -60.1553 -33.207 -87.1455c-10.751 -19.8174 -24.6201 -37.4004 -47.4668 -43.0088c-22.0098 -5.40234 -47.5381 2.47949 -63.9287 17.8525
c-36.2197 33.9668 -40.6221 99.4316 -30.8672 144.81c11.4463 53.2598 42.6357 96.1084 99.9102 101.961c25.8867 2.64648 51.5039 -2.39062 72.5596 -14.6348c0.255859 3.65723 0.49707 7.31738 0.791016 10.96c2.35156 29.0967 74.6904 28.5576 73.7686 0
c-2.11035 -65.1924 -4.45898 -129.395 10.8574 -193.391c3.04688 -12.7197 6.2998 -27.0361 14.8447 -37.3975c14.1533 -17.1611 34.1123 4.33789 44.0508 16.3311c19.2041 23.1768 28.6602 52.6562 38.1201 80.7275zM117.822 62.1309
c15.5186 40.6885 26.5537 82.9229 36.8506 125.236c-11.3506 11.8652 -26.0244 22.4961 -40.7734 25.3164c-19.3457 3.69922 -36.4111 -9.26172 -46.584 -24.6738c-25.2236 -38.2021 -28.8877 -90.958 -19.1758 -134.641
c2.37695 -10.6875 13.6035 -58.3428 30.3916 -54.5156c10.0771 2.29883 18.9375 20.4492 23.5986 28.7568c6.19629 11.0527 11.1836 22.6943 15.6924 34.5205z" />
    <glyph glyph-name="a" unicode="&#xe1;" horiz-adv-x="344" 
d="M342.388 107.481c2.97559 8.8252 27.3877 7.02637 24.6387 -3.86719c-9.3252 -36.9639 -24.0527 -76.3545 -54.5225 -101.22c-27.9121 -22.7832 -65.9512 -27.749 -95.9131 -5.94824c-35.1836 25.6025 -46.7754 70.2393 -53.2422 111.077
c-0.152344 0.960938 -0.248047 1.93262 -0.393555 2.89355c-8.28223 -30.4551 -18.5684 -60.1553 -33.207 -87.1455c-10.751 -19.8174 -24.6201 -37.4004 -47.4668 -43.0088c-22.0098 -5.40234 -47.5381 2.47949 -63.9287 17.8525
c-36.2197 33.9668 -40.6221 99.4316 -30.8672 144.81c11.4463 53.2598 42.6357 96.1084 99.9102 101.961c25.8867 2.64648 51.5039 -2.39062 72.5596 -14.6348c0.255859 3.65723 0.49707 7.31738 0.791016 10.96c2.35156 29.0967 74.6904 28.5576 73.7686 0
c-2.11035 -65.1924 -4.45898 -129.395 10.8574 -193.391c3.04688 -12.7197 6.2998 -27.0361 14.8447 -37.3975c14.1533 -17.1611 34.1123 4.33789 44.0508 16.3311c19.2041 23.1768 28.6602 52.6562 38.1201 80.7275zM117.822 62.1309
c15.5186 40.6885 26.5537 82.9229 36.8506 125.236c-11.3506 11.8652 -26.0244 22.4961 -40.7734 25.3164c-19.3457 3.69922 -36.4111 -9.26172 -46.584 -24.6738c-25.2236 -38.2021 -28.8877 -90.958 -19.1758 -134.641
c2.37695 -10.6875 13.6035 -58.3428 30.3916 -54.5156c10.0771 2.29883 18.9375 20.4492 23.5986 28.7568c6.19629 11.0527 11.1836 22.6943 15.6924 34.5205z" />
    <glyph glyph-name="b" unicode="b" horiz-adv-x="311" 
d="M309.146 101.973c3.66406 9.57715 31.0215 7.01172 26.7754 -4.20801c-12.0957 -31.9668 -45.5273 -48.6348 -80.3242 -60.127c-6.68652 -56.626 -31.2539 -114.443 -88.0215 -130.536c-27.3164 -7.74316 -73.1133 -8.62305 -87.9512 21.5518
c-12.9502 26.334 14.1992 62.585 34.4814 77.1064c19.7188 14.1143 43.4561 22.1133 67.2246 28.9268c3.8916 20.584 5.46289 41.334 5.81445 59.6016c0.535156 27.7168 -1.30176 56.8916 -6.99121 84.0654c-2.15625 10.2969 -6.4834 33.6221 -20.7354 24.1367
c-11.9746 -7.9707 -20.4668 -21.5557 -27.6641 -33.623c-29.5615 -49.5566 -45.123 -109.119 -56.6582 -165.255c0.386719 -6.83203 0.578125 -13.6494 0.475586 -20.4453c-0.297852 -19.5234 -38.5146 -14.9336 -46.0518 -3.55078
c-27.8096 41.9971 -35.0176 98.9033 -39.3311 148.041c-4.37012 49.7979 -5.93457 99.9678 -4.86328 149.942c1.79492 83.6045 12.418 170.668 53.8447 244.849c19.207 34.3926 48.6475 65.0957 87.7471 74.8896c33.0947 8.28906 71.0059 3.42969 95.7295 -21.8535
c55.2314 -56.4873 26.1738 -160.545 -3.66406 -222.399c-36.6309 -75.9287 -96.5127 -137.286 -156.813 -194.852c0.708984 -20.2041 1.68457 -40.4014 3.05371 -60.623c0.47168 -6.94922 1.13867 -13.9229 1.9082 -20.9141
c5.24609 18.4941 11.2197 36.7656 18.2109 54.6035c12.2764 31.3242 30.7705 72.9453 63.875 87.0518c75.3115 32.0869 104.143 -74.0664 107.722 -127.251c0.706055 -10.5137 0.855469 -21.6689 0.327148 -33.0869c22.5312 9.03125 43.4766 21.9883 51.8799 43.959z
M60.8477 213.723c0.117188 -8.70117 0.28418 -17.3916 0.482422 -26.0752c52.0322 51.0215 101.28 105.76 132.172 172.456c15.6572 33.8037 26.3799 69.959 29.0684 107.214c2.59668 35.957 -1.4541 81.0439 -33.7188 103.61
c-30.3096 21.2012 -60.5098 -12.0918 -73.6055 -37.8857c-16.1289 -31.7715 -26.8018 -66.4834 -35.0908 -101.028c-17.1113 -71.3066 -20.2969 -145.249 -19.3076 -218.291zM138.316 -53.6426c19.0801 16.834 30.999 41.4473 38.292 67.8691
c-22.251 -7.49902 -45.0127 -17.4805 -56.5371 -38.3975c-4.68945 -8.5127 -17.1045 -37.9424 -0.199219 -39.6484c5.28516 -0.532227 13.415 5.73926 18.4443 10.1768z" />
    <glyph glyph-name="c" unicode="c" horiz-adv-x="203" 
d="M202.832 105.665c3.74219 8.57324 28.543 6.16309 24.3613 -3.8252c-17.4053 -41.6465 -39.7656 -84.1016 -73.8145 -114.593c-17.5439 -15.71 -35.0947 -29.916 -59.2109 -33.1191c-28.0322 -3.72461 -57.835 6.74609 -76.3789 28.2344
c-34.3008 39.7451 -38.252 98.708 -30.3311 148.431c8.44922 53.0293 31.2744 109.928 88.3965 125.014c43.2568 11.4219 91.3662 -10.5449 86.3184 -59.8145c-1.09961 -10.7295 -27.3662 -10.8008 -27.4902 0c-0.12793 11.0703 -1.60742 23.9424 -11.7803 30.5928
c-7.15137 4.67871 -8.46777 3.83105 -13.1816 -0.81543c-15.2598 -15.04 -23.6592 -34.8467 -30.3955 -54.9268c-14.1387 -42.1572 -19.3066 -88.5068 -11.0986 -132.491c2.91895 -15.6426 7.22852 -47.0625 22.708 -55.9014
c18.7607 -10.7158 44.4873 17.0078 55.6396 29.5576c24.2803 27.3232 41.7109 60.332 56.2578 93.6572z" />
    <glyph glyph-name="d" unicode="d" horiz-adv-x="365" 
d="M363.345 105.189c2.45117 7.72168 26.1885 6.82227 24.5498 -1.89648c-7.25 -38.5107 -17.749 -78.4121 -37.1055 -112.755c-18.207 -32.3037 -48.8252 -56.0654 -87.8857 -51.3936c-66.1709 7.91699 -89.4365 80.749 -98.1445 136.719
c-1.42578 9.16895 -2.64941 18.3701 -3.70996 27.5996c-7.95215 -28.0146 -17.7744 -55.2598 -31.2998 -80.1953c-10.751 -19.8174 -24.6201 -37.4004 -47.4668 -43.0088c-22.0098 -5.40234 -47.5381 2.47949 -63.9287 17.8525
c-36.2197 33.9668 -40.6221 99.4316 -30.8672 144.81c11.4463 53.2598 42.6357 96.1084 99.9102 101.961c23.9746 2.45117 47.7256 -1.67773 67.834 -12.0176c0.145508 17.5156 0.549805 34.9961 1.07812 52.3906c2.14941 70.835 5.60059 141.897 11.666 212.51
c2.77051 32.2461 82.5479 31.9766 82.083 0c-0.993164 -68.583 -7.69043 -137.035 -10.752 -205.544c-2.73828 -61.3613 -4.20312 -123.099 -1.05664 -184.471c1.39746 -27.2627 3.44043 -54.1641 8.36719 -81.0479c3.96582 -21.6406 9.23633 -56.4414 32.0049 -66.2988
c8.09082 -3.50488 7.8252 -2.89453 15.9766 1.95801c6.34961 3.77734 11.6777 9.16504 16.4277 14.7734c10.9424 12.9219 18.6787 28.6816 25.2412 44.1758c11.5205 27.1924 18.1641 55.832 27.0781 83.8789zM117.826 62.1299
c15.5186 40.6885 26.5537 82.9229 36.8506 125.236c-11.3506 11.8652 -26.0244 22.4961 -40.7734 25.3164c-19.3457 3.69922 -36.4111 -9.26172 -46.584 -24.6738c-25.2236 -38.2021 -28.8877 -90.958 -19.1758 -134.641
c2.37695 -10.6875 13.6035 -58.3428 30.3916 -54.5156c10.0771 2.29883 18.9375 20.4492 23.5986 28.7568c6.19629 11.0527 11.1836 22.6943 15.6924 34.5205z" />
    <glyph glyph-name="e" unicode="e" horiz-adv-x="169" 
d="M167.723 107.599c3.33398 8.7793 28.375 6.57812 24.6367 -3.87207c-16.4619 -46.0195 -44.0195 -112.456 -97.9248 -123.689c-53.6602 -11.1807 -95.6572 19.835 -107.26 72.4453c-11.0742 50.2129 0.0214844 115.338 31.5371 156.459
c16.3838 21.375 38.6094 35.5527 66.4219 33.4775c18.6826 -1.39355 35.418 -10.9424 42.1934 -29.2529c14.2383 -38.4785 -24.6523 -60.2539 -57.917 -60.4805c-7.6123 -25.6807 -11.8369 -52.3623 -11.1484 -79.1465c0.493164 -19.2393 3.12891 -37.457 9.5459 -55.6035
c2.11426 -5.97656 4.03711 -15.0928 9.02441 -19.5049c8.4707 -7.49121 22.1094 1.73438 29.377 7.52637c30.0615 23.9639 48.2295 66.6602 61.5137 101.642zM83.3086 190.655c-3.40137 -7.79297 -6.51465 -15.7373 -9.32422 -23.793
c9.53418 0.592773 18.4482 4.50488 24.0312 13.3975c5.03711 8.01953 7.0127 20.0615 2.00391 28.6211c-1.35156 1.5498 -2.69922 3.09961 -4.05078 4.65332c-0.506836 -0.624023 -1.08887 -1.18066 -1.56445 -1.83301c-4.625 -6.39551 -7.95605 -13.8555 -11.0957 -21.0459
z" />
    <glyph glyph-name="e" unicode="&#xeb;" horiz-adv-x="169" 
d="M167.723 107.599c3.33398 8.7793 28.375 6.57812 24.6367 -3.87207c-16.4619 -46.0195 -44.0195 -112.456 -97.9248 -123.689c-53.6602 -11.1807 -95.6572 19.835 -107.26 72.4453c-11.0742 50.2129 0.0214844 115.338 31.5371 156.459
c16.3838 21.375 38.6094 35.5527 66.4219 33.4775c18.6826 -1.39355 35.418 -10.9424 42.1934 -29.2529c14.2383 -38.4785 -24.6523 -60.2539 -57.917 -60.4805c-7.6123 -25.6807 -11.8369 -52.3623 -11.1484 -79.1465c0.493164 -19.2393 3.12891 -37.457 9.5459 -55.6035
c2.11426 -5.97656 4.03711 -15.0928 9.02441 -19.5049c8.4707 -7.49121 22.1094 1.73438 29.377 7.52637c30.0615 23.9639 48.2295 66.6602 61.5137 101.642zM83.3086 190.655c-3.40137 -7.79297 -6.51465 -15.7373 -9.32422 -23.793
c9.53418 0.592773 18.4482 4.50488 24.0312 13.3975c5.03711 8.01953 7.0127 20.0615 2.00391 28.6211c-1.35156 1.5498 -2.69922 3.09961 -4.05078 4.65332c-0.506836 -0.624023 -1.08887 -1.18066 -1.56445 -1.83301c-4.625 -6.39551 -7.95605 -13.8555 -11.0957 -21.0459
z" />
    <glyph glyph-name="e" unicode="&#xea;" horiz-adv-x="169" 
d="M167.723 107.599c3.33398 8.7793 28.375 6.57812 24.6367 -3.87207c-16.4619 -46.0195 -44.0195 -112.456 -97.9248 -123.689c-53.6602 -11.1807 -95.6572 19.835 -107.26 72.4453c-11.0742 50.2129 0.0214844 115.338 31.5371 156.459
c16.3838 21.375 38.6094 35.5527 66.4219 33.4775c18.6826 -1.39355 35.418 -10.9424 42.1934 -29.2529c14.2383 -38.4785 -24.6523 -60.2539 -57.917 -60.4805c-7.6123 -25.6807 -11.8369 -52.3623 -11.1484 -79.1465c0.493164 -19.2393 3.12891 -37.457 9.5459 -55.6035
c2.11426 -5.97656 4.03711 -15.0928 9.02441 -19.5049c8.4707 -7.49121 22.1094 1.73438 29.377 7.52637c30.0615 23.9639 48.2295 66.6602 61.5137 101.642zM83.3086 190.655c-3.40137 -7.79297 -6.51465 -15.7373 -9.32422 -23.793
c9.53418 0.592773 18.4482 4.50488 24.0312 13.3975c5.03711 8.01953 7.0127 20.0615 2.00391 28.6211c-1.35156 1.5498 -2.69922 3.09961 -4.05078 4.65332c-0.506836 -0.624023 -1.08887 -1.18066 -1.56445 -1.83301c-4.625 -6.39551 -7.95605 -13.8555 -11.0957 -21.0459
z" />
    <glyph glyph-name="e" unicode="&#xe9;" horiz-adv-x="169" 
d="M167.723 107.599c3.33398 8.7793 28.375 6.57812 24.6367 -3.87207c-16.4619 -46.0195 -44.0195 -112.456 -97.9248 -123.689c-53.6602 -11.1807 -95.6572 19.835 -107.26 72.4453c-11.0742 50.2129 0.0214844 115.338 31.5371 156.459
c16.3838 21.375 38.6094 35.5527 66.4219 33.4775c18.6826 -1.39355 35.418 -10.9424 42.1934 -29.2529c14.2383 -38.4785 -24.6523 -60.2539 -57.917 -60.4805c-7.6123 -25.6807 -11.8369 -52.3623 -11.1484 -79.1465c0.493164 -19.2393 3.12891 -37.457 9.5459 -55.6035
c2.11426 -5.97656 4.03711 -15.0928 9.02441 -19.5049c8.4707 -7.49121 22.1094 1.73438 29.377 7.52637c30.0615 23.9639 48.2295 66.6602 61.5137 101.642zM83.3086 190.655c-3.40137 -7.79297 -6.51465 -15.7373 -9.32422 -23.793
c9.53418 0.592773 18.4482 4.50488 24.0312 13.3975c5.03711 8.01953 7.0127 20.0615 2.00391 28.6211c-1.35156 1.5498 -2.69922 3.09961 -4.05078 4.65332c-0.506836 -0.624023 -1.08887 -1.18066 -1.56445 -1.83301c-4.625 -6.39551 -7.95605 -13.8555 -11.0957 -21.0459
z" />
    <glyph glyph-name="f" unicode="f" horiz-adv-x="219" 
d="M223.716 106.297c8.00586 4.80273 31.125 -2.54395 18.2666 -10.4082c-43.6787 -26.7197 -94.4482 -37.0557 -141.784 -55.415c9.9707 -0.989258 19.7715 -3.22754 29.1748 -7.50879c20.25 -9.21484 35.7471 -26.2803 45.7715 -45.9102
c12.3154 -24.1094 17.3027 -53.0498 13.8545 -79.876c-2.56836 -20.0059 -10.5596 -43.9668 -27.2168 -56.584c-40.3584 -30.5684 -95.1328 0.553711 -120.576 35.1729c-29.0439 39.5215 -39.3662 92.543 -45.7471 140.191
c-12.8477 95.8809 -14.2412 211.005 38.4824 296.206c24.0811 38.915 60.9951 76.9502 109.984 77.3223c43.4941 0.330078 68.1035 -30.3096 64.7129 -72.3457c-4.03613 -49.9854 -29.4443 -98.5098 -55.6396 -140.326
c-23.0352 -36.7725 -50.6172 -70.3418 -81.8242 -100.393c0.234375 -5.95898 0.5 -11.9004 0.833008 -17.8135c0.37207 -6.60156 0.833008 -13.2383 1.34375 -19.8818c49.7617 20.1904 104.039 29.7783 150.364 57.5693zM95.7295 284.186
c-19.8604 -53.625 -25.6201 -111.964 -25.209 -169.398c47.6484 50.9004 87.9111 112.893 106.221 179.127c5.31738 19.2363 9.1875 43.002 2.5293 62.5322c-5.73926 16.8242 -20.9385 26.4932 -35.9502 14.1816c-24.5068 -20.0977 -36.9531 -57.7217 -47.5908 -86.4424z
M124.469 12.8154c-14.5215 11.6133 -31.5732 13.0889 -48.9365 12.0283c2.72461 -25.2588 6.81055 -50.4609 13.1064 -74.8115c4.5791 -17.7246 10.1123 -34.8643 18.2812 -51.2871c4.44141 -8.93164 13.9756 -29.1816 25.5146 -31.0479
c7.35352 -1.18848 17.7324 9.81836 20.9678 15.1924c5.18262 8.60547 7.0127 19.9736 7.86719 29.7988c1.69922 19.5303 -0.975586 39.4541 -7.88867 57.793c-6.06934 16.1006 -15.3271 31.4697 -28.9121 42.334z" />
    <glyph glyph-name="g" unicode="g" horiz-adv-x="327" 
d="M328.394 91.75c3.625 8.1582 26.8662 6.79395 23.8369 -3.75195c-10.627 -36.9531 -58.2324 -60.3848 -88.6348 -78.9541c-5.61523 -3.42969 -11.2695 -6.78906 -16.9414 -10.1162c0.18457 -39.9404 -0.960938 -79.8555 -5.37012 -119.618
c-9.57324 -86.375 -44.6855 -180.862 -129.883 -218.376c-74.4248 -32.7715 -178.426 0.695312 -171.026 95.5479c6.72168 86.1621 97.0195 144.331 163.978 184.313c22.8574 13.6494 46.2119 26.4258 69.5479 39.2305c-2.33398 44.9629 -6.39551 90.0078 -9.49609 135.049
c-8.49512 -32.0869 -19.0898 -63.4434 -34.4775 -91.8125c-10.751 -19.8174 -24.6201 -37.4004 -47.4668 -43.0088c-22.0098 -5.40234 -47.5381 2.47949 -63.9287 17.8525c-36.2197 33.9668 -40.6221 99.4316 -30.8672 144.81
c11.4463 53.2598 42.6357 96.1084 99.9102 101.961c25.9756 2.65723 51.6777 -2.42578 72.7754 -14.7627c0.0322266 2.625 0.0322266 5.25 0.0888672 7.87109c0.660156 31.0479 77.7734 30.9346 79.0322 0c2.44434 -59.9844 4.54395 -120.143 6.16895 -180.159
c0.330078 -12.1592 0.592773 -24.3184 0.78418 -36.4814c12.8408 7.81055 25.5215 15.8838 37.8721 24.4502c17.9912 12.4756 34.9746 25.4434 44.0977 45.9561zM118.003 62.126c15.5186 40.6885 26.5537 82.9229 36.8506 125.236
c-11.3506 11.8652 -26.0244 22.4961 -40.7734 25.3164c-19.3457 3.69922 -36.4111 -9.26172 -46.584 -24.6738c-25.2236 -38.2021 -28.8877 -90.958 -19.1758 -134.641c2.37695 -10.6875 13.6035 -58.3428 30.3916 -54.5156
c10.0771 2.29883 18.9375 20.4492 23.5986 28.7568c6.19629 11.0527 11.1836 22.6943 15.6924 34.5205zM123.664 -292.424c57.9131 65.667 54.2227 164.536 51.3916 246.354c-0.0527344 1.53906 -0.130859 3.07812 -0.1875 4.61719
c-10.0986 -5.61816 -20.1758 -11.2793 -30.1855 -17.0537c-35.0166 -20.1973 -69.4414 -41.7988 -100.411 -67.8984c-30.8135 -25.9648 -61.1377 -57.6152 -71.3252 -97.8184c-9.90723 -39.0928 1.88281 -84.5312 40.5 -102.912
c40.0391 -19.0547 83.4053 4.30957 110.218 34.7119z" />
    <glyph glyph-name="h" unicode="h" horiz-adv-x="356" 
d="M356.188 83.6445c3.4834 8.49512 27.8506 6.0459 23.835 -3.74023c-19.0869 -46.5234 -44.0371 -120.072 -98.9355 -134.619c-30.001 -7.94922 -56.6465 7.33496 -75.8047 29.7734c-21.5166 25.2061 -19.0869 57.8574 -18.4307 89.082
c0.723633 34.6191 -0.0351562 69.1641 1.52539 103.77c0.195312 4.33789 3.5332 39.4678 -0.389648 40.7695c-7.19727 2.38672 -31.3037 -29.1855 -35.415 -34.4209c-38.6172 -49.1416 -59.5693 -113.089 -77.3721 -172.851
c0.304688 -6.09082 0.460938 -12.1738 0.369141 -18.2354c-0.297852 -19.5234 -38.5137 -14.9336 -46.0508 -3.55078c-27.8096 41.9971 -35.0176 98.9033 -39.3311 148.041c-4.37012 49.7979 -5.93457 99.9678 -4.86328 149.942
c1.79492 83.6045 12.418 170.668 53.8447 244.849c19.207 34.3926 48.6475 65.0957 87.7471 74.8896c33.0947 8.28906 71.0059 3.42969 95.7295 -21.8535c55.2314 -56.4873 26.1738 -160.545 -3.66406 -222.399c-36.6309 -75.9287 -96.5127 -137.286 -156.813 -194.852
c0.708984 -20.2041 1.68457 -40.4014 3.05371 -60.623c0.702148 -10.3535 1.84082 -20.7607 3.10742 -31.1924c13.1562 37.0498 29.2461 73.1592 51.5293 104.753c14.7412 20.8955 35.1475 48.1445 61.4883 54.1572c24.3369 5.55469 44.8926 -8.93555 57.4062 -29.1074
c16.8633 -27.1777 21.0918 -63.791 24.1816 -95.0869c3.25586 -33.0195 2.73828 -66.4121 5.36328 -99.5068c0.613281 -7.75 -3.28516 -31.4229 4.30957 -36.7012c12.8652 -8.94922 35.4883 25.1348 40.7412 32.6719c18.4238 26.4326 30.6758 56.3877 42.8389 86.041z
M60.8418 213.722c0.120117 -8.70117 0.287109 -17.3916 0.482422 -26.0752c52.0322 51.0215 101.28 105.76 132.172 172.456c15.6572 33.8037 26.3799 69.959 29.0684 107.214c2.59668 35.957 -1.4541 81.0439 -33.7188 103.61
c-30.3096 21.2012 -60.5098 -12.0918 -73.6055 -37.8857c-16.1289 -31.7715 -26.8018 -66.4834 -35.0908 -101.028c-17.1113 -71.3066 -20.2969 -145.249 -19.3076 -218.291z" />
    <glyph glyph-name="i" unicode="i" horiz-adv-x="176" 
d="M174.043 108.747c3.37695 8.70801 28.207 6.70508 24.6387 -3.86523c-13.0781 -38.752 -25.4854 -80.6533 -56.3984 -109.445c-27.9551 -26.0391 -60.6807 -34.6162 -96.3223 -16.9521c-40.0605 19.8535 -49.999 69.9707 -55.4014 110.354
c-6.16797 46.0908 -7.38086 98.1797 2.90234 143.649c6.41992 28.3877 72.7041 31.1367 75.9854 0c3.70996 -35.2051 -1.22363 -70.8428 -0.929688 -106.186c0.276367 -32.7539 1.48926 -67.2598 8.6084 -99.3359c1.94727 -8.77539 6.46582 -30.2002 16.0361 -34.4287
c14.4297 -6.37793 35.4854 21.7539 42.1289 31.2246c17.9307 25.5635 27.5605 56.1396 38.752 84.9844zM16.1191 289.348c-26.9824 14.6211 -54.251 60.4209 -40.3857 86.6689c3.60742 6.83496 13.2871 8.71875 20.2256 8.7793
c13.2275 0.113281 20.7617 -4.14355 25.0576 -16.1826c1.13184 -3.1709 2.13184 -6.3916 3.12891 -9.6123c8.57324 13.0928 20.5625 22.0352 36.3896 17.1113c27.4336 -8.53418 -10.2822 -70.1572 -16.7412 -85.6934c-3.3877 -8.14746 -23.0674 -7.72168 -27.6748 -1.07129z
" />
    <glyph glyph-name="i" unicode="&#xef;" horiz-adv-x="176" 
d="M174.043 108.747c3.37695 8.70801 28.207 6.70508 24.6387 -3.86523c-13.0781 -38.752 -25.4854 -80.6533 -56.3984 -109.445c-27.9551 -26.0391 -60.6807 -34.6162 -96.3223 -16.9521c-40.0605 19.8535 -49.999 69.9707 -55.4014 110.354
c-6.16797 46.0908 -7.38086 98.1797 2.90234 143.649c6.41992 28.3877 72.7041 31.1367 75.9854 0c3.70996 -35.2051 -1.22363 -70.8428 -0.929688 -106.186c0.276367 -32.7539 1.48926 -67.2598 8.6084 -99.3359c1.94727 -8.77539 6.46582 -30.2002 16.0361 -34.4287
c14.4297 -6.37793 35.4854 21.7539 42.1289 31.2246c17.9307 25.5635 27.5605 56.1396 38.752 84.9844zM16.1191 289.348c-26.9824 14.6211 -54.251 60.4209 -40.3857 86.6689c3.60742 6.83496 13.2871 8.71875 20.2256 8.7793
c13.2275 0.113281 20.7617 -4.14355 25.0576 -16.1826c1.13184 -3.1709 2.13184 -6.3916 3.12891 -9.6123c8.57324 13.0928 20.5625 22.0352 36.3896 17.1113c27.4336 -8.53418 -10.2822 -70.1572 -16.7412 -85.6934c-3.3877 -8.14746 -23.0674 -7.72168 -27.6748 -1.07129z
" />
    <glyph glyph-name="i" unicode="&#xee;" horiz-adv-x="176" 
d="M174.043 108.747c3.37695 8.70801 28.207 6.70508 24.6387 -3.86523c-13.0781 -38.752 -25.4854 -80.6533 -56.3984 -109.445c-27.9551 -26.0391 -60.6807 -34.6162 -96.3223 -16.9521c-40.0605 19.8535 -49.999 69.9707 -55.4014 110.354
c-6.16797 46.0908 -7.38086 98.1797 2.90234 143.649c6.41992 28.3877 72.7041 31.1367 75.9854 0c3.70996 -35.2051 -1.22363 -70.8428 -0.929688 -106.186c0.276367 -32.7539 1.48926 -67.2598 8.6084 -99.3359c1.94727 -8.77539 6.46582 -30.2002 16.0361 -34.4287
c14.4297 -6.37793 35.4854 21.7539 42.1289 31.2246c17.9307 25.5635 27.5605 56.1396 38.752 84.9844zM16.1191 289.348c-26.9824 14.6211 -54.251 60.4209 -40.3857 86.6689c3.60742 6.83496 13.2871 8.71875 20.2256 8.7793
c13.2275 0.113281 20.7617 -4.14355 25.0576 -16.1826c1.13184 -3.1709 2.13184 -6.3916 3.12891 -9.6123c8.57324 13.0928 20.5625 22.0352 36.3896 17.1113c27.4336 -8.53418 -10.2822 -70.1572 -16.7412 -85.6934c-3.3877 -8.14746 -23.0674 -7.72168 -27.6748 -1.07129z
" />
    <glyph glyph-name="i" unicode="&#xed;" horiz-adv-x="176" 
d="M174.043 108.747c3.37695 8.70801 28.207 6.70508 24.6387 -3.86523c-13.0781 -38.752 -25.4854 -80.6533 -56.3984 -109.445c-27.9551 -26.0391 -60.6807 -34.6162 -96.3223 -16.9521c-40.0605 19.8535 -49.999 69.9707 -55.4014 110.354
c-6.16797 46.0908 -7.38086 98.1797 2.90234 143.649c6.41992 28.3877 72.7041 31.1367 75.9854 0c3.70996 -35.2051 -1.22363 -70.8428 -0.929688 -106.186c0.276367 -32.7539 1.48926 -67.2598 8.6084 -99.3359c1.94727 -8.77539 6.46582 -30.2002 16.0361 -34.4287
c14.4297 -6.37793 35.4854 21.7539 42.1289 31.2246c17.9307 25.5635 27.5605 56.1396 38.752 84.9844zM16.1191 289.348c-26.9824 14.6211 -54.251 60.4209 -40.3857 86.6689c3.60742 6.83496 13.2871 8.71875 20.2256 8.7793
c13.2275 0.113281 20.7617 -4.14355 25.0576 -16.1826c1.13184 -3.1709 2.13184 -6.3916 3.12891 -9.6123c8.57324 13.0928 20.5625 22.0352 36.3896 17.1113c27.4336 -8.53418 -10.2822 -70.1572 -16.7412 -85.6934c-3.3877 -8.14746 -23.0674 -7.72168 -27.6748 -1.07129z
" />
    <glyph glyph-name="j" unicode="j" horiz-adv-x="154" 
d="M155.396 91.75c3.62891 8.1582 26.8691 6.79492 23.833 -3.74707c-10.627 -36.9531 -58.2324 -60.3848 -88.6348 -78.9541c-5.61523 -3.42969 -11.2695 -6.78906 -16.9414 -10.1162c0.18457 -39.9404 -0.960938 -79.8555 -5.37012 -119.618
c-9.57324 -86.375 -44.6855 -180.862 -129.883 -218.376c-74.4248 -32.7715 -178.426 0.695312 -171.026 95.5479c6.72168 86.1621 97.0195 144.331 163.978 184.313c22.8574 13.6494 46.2119 26.4258 69.5479 39.2305c-4.45898 85.8818 -15.2881 172.062 -13.458 257.954
c0.660156 31.0479 77.7734 30.9346 79.0322 0c2.44434 -59.9844 4.54395 -120.143 6.16895 -180.159c0.330078 -12.1592 0.592773 -24.3184 0.78418 -36.4814c12.8408 7.81055 25.5215 15.8838 37.8721 24.4502c17.9912 12.4756 34.9746 25.4434 44.0977 45.9561z
M-49.3311 -292.422c57.9131 65.667 54.2207 164.536 51.3936 246.354c-0.0527344 1.53906 -0.130859 3.07812 -0.1875 4.61719c-10.0986 -5.61816 -20.1758 -11.2793 -30.1855 -17.0537c-35.0166 -20.1973 -69.4414 -41.7988 -100.411 -67.8984
c-30.8135 -25.9648 -61.1377 -57.6152 -71.3252 -97.8184c-9.91016 -39.0928 1.88086 -84.5312 40.498 -102.912c40.0391 -19.0547 83.4053 4.30957 110.218 34.7119zM11.8848 289.348c-26.9863 14.6211 -54.2549 60.4209 -40.3857 86.6689
c3.60742 6.83496 13.2871 8.71875 20.2256 8.7793c13.2275 0.113281 20.7617 -4.14355 25.0576 -16.1826c1.13184 -3.1709 2.13184 -6.3916 3.12891 -9.6123c8.56934 13.0928 20.5625 22.0352 36.3896 17.1113c27.4336 -8.53418 -10.2822 -70.1572 -16.7412 -85.6934
c-3.3877 -8.14746 -23.0674 -7.72168 -27.6748 -1.07129z" />
    <glyph glyph-name="k" unicode="k" horiz-adv-x="280" 
d="M279.556 106.151c4.36621 8.20117 28.626 5.25 23.834 -3.73828c-26.0107 -48.8574 -56.668 -119.412 -122.573 -116.369c-32.6016 1.50391 -60.2549 17.4268 -69.665 49.6943c-4.53711 15.5645 -6.31055 32.0654 -8.15137 48.1123
c-0.333008 2.87695 -2.09961 23.8223 -3.49707 32.6797c-13.6953 -30.2285 -22.127 -63.2559 -25.7803 -95.417c1.23828 -12.6875 2.04004 -25.3506 1.84863 -37.9355c-0.297852 -19.5234 -38.5146 -14.9336 -46.0518 -3.55078
c-27.8096 41.9971 -35.0176 98.9033 -39.3311 148.041c-4.37012 49.7979 -5.93457 99.9678 -4.86328 149.942c1.79492 83.6045 12.418 170.668 53.8447 244.849c19.207 34.3926 48.6475 65.0957 87.7471 74.8896c33.0947 8.28906 71.0059 3.42969 95.7295 -21.8535
c55.2314 -56.4873 26.1738 -160.545 -3.66406 -222.399c-36.6309 -75.9287 -96.5127 -137.286 -156.813 -194.852c0.706055 -20.1543 1.67773 -40.2979 3.04297 -60.4668c7.07617 19.2002 16.0293 37.7227 26.8975 55.2129c21.8818 35.2119 58.2393 76.9971 104.604 70.6084
c46.6338 -6.42383 48.5176 -56.626 17.4629 -83.8887c-19.4414 -17.0654 -45.7178 -25.1523 -71.502 -24.085c20.2969 -23.7197 23.5957 -63.2695 37.415 -90.9971c5.29199 -10.6162 5.16406 -22.0596 19.25 -18.6367c13.5176 3.28418 24.5488 15.5186 33.126 25.6562
c18.9375 22.3857 33.3672 48.7197 47.0908 74.5039zM60.8428 213.721c0.117188 -8.70117 0.283203 -17.3916 0.481445 -26.0752c52.0322 51.0215 101.28 105.76 132.172 172.456c15.6572 33.8037 26.3799 69.959 29.0684 107.214
c2.59668 35.957 -1.4541 81.0439 -33.7188 103.61c-30.3096 21.2012 -60.5098 -12.0918 -73.6055 -37.8857c-16.1318 -31.7715 -26.8018 -66.4834 -35.0908 -101.028c-17.1113 -71.3066 -20.2998 -145.249 -19.3066 -218.291zM115.062 142.438
c28.1816 -19.7539 69.2754 -10.8896 87.3652 18.9414c8.00586 13.2021 11.4639 35.9004 -4.93457 44.793c-17.8486 9.68359 -40.6992 -10.3291 -52.4082 -22.0312c-12.1201 -12.1133 -22.6055 -25.9219 -31.5938 -40.834
c0.560547 -0.251953 1.09277 -0.536133 1.57129 -0.869141z" />
    <glyph glyph-name="l" unicode="l" horiz-adv-x="196" 
d="M194.168 105.189c2.45508 7.72168 26.1924 6.82227 24.5498 -1.88965c-7.25 -38.5107 -17.749 -78.4121 -37.1055 -112.755c-18.207 -32.3037 -48.8252 -56.0654 -87.8857 -51.3936c-66.167 7.91699 -89.4355 80.749 -98.1436 136.719
c-10.7266 68.9199 -10.5527 139.848 -8.44531 209.385c2.14941 70.835 5.60059 141.897 11.666 212.51c2.77051 32.2461 82.5479 31.9766 82.083 0c-0.993164 -68.583 -7.69043 -137.035 -10.752 -205.544c-2.73828 -61.3613 -4.20703 -123.099 -1.05762 -184.471
c1.39746 -27.2627 3.44043 -54.1641 8.36719 -81.0479c3.96191 -21.6406 9.23242 -56.4414 32.001 -66.2988c8.09082 -3.50488 7.8252 -2.89453 15.9766 1.95801c6.34961 3.77734 11.6777 9.16504 16.4277 14.7734c10.9424 12.9219 18.6748 28.6816 25.2402 44.1758
c11.5205 27.1924 18.1641 55.832 27.0781 83.8789z" />
    <glyph glyph-name="m" unicode="m" horiz-adv-x="454" 
d="M453.01 98.8584c4.3877 8.67969 29.9941 5.87402 25.1699 -3.95898c-18.6934 -38.0459 -36.6875 -99.6699 -87.4922 -103.859c-25.2549 -2.08203 -51.4609 6.52637 -68.0791 26.1094c-18.5693 21.8789 -20.5166 50.4609 -22.751 77.9473
c-2.38379 29.3242 -3.95117 58.8398 -5.56152 88.2168c-0.432617 7.8457 -0.152344 15.5469 0.248047 23.3828c-0.0390625 0.198242 -0.0244141 0.393555 -0.0566406 0.591797c-4.17871 -6.06934 -10.5459 -11.7939 -14.5049 -17.7881
c-3.23145 -4.8916 -6.22559 -9.9502 -9.06641 -15.0791c-27.3164 -49.2764 -42.7139 -105.101 -57.7607 -159.226c-0.0498047 -3.0752 -0.0498047 -6.16504 -0.15625 -9.22949c-0.904297 -25.958 -61.9102 -25.1348 -65.1768 0
c-4.87695 37.5498 -6.60449 75.8086 -7.23242 113.663c-0.291016 17.5576 -0.769531 35.1123 -1.0498 52.667c-0.12793 8.02344 0.0498047 16.0859 0.379883 24.1055c0.177734 4.30273 1.85547 17.0049 -1.48242 16.4619c-6.16504 -1 -14.043 -16.6387 -16.8594 -21.3701
c-4.27734 -7.18652 -8.03711 -14.7207 -11.542 -22.3076c-7.08691 -15.3447 -12.8867 -31.2676 -18.2432 -47.29c-11.8291 -35.3926 -20.8779 -71.5693 -27.5107 -108.285c-0.12793 -0.719727 -0.408203 -1.36523 -0.759766 -1.96777
c-1.14551 -8.41016 -2.91504 -16.6035 -5.68164 -24.3965c-4.75293 -13.3936 -32.6611 -11.0811 -40.5713 -3.02246c-28.5537 29.1006 -27.9971 73.1592 -28.7881 111.606c-0.869141 42.2598 -1.17383 84.6689 4.53711 126.606c3.85254 28.2705 72.9355 28.9902 73.2158 0
c0.351562 -36.2549 -1.74512 -72.4531 -2.33008 -108.701c3.82422 12.124 7.94922 24.1455 12.4609 36.0215c10.4004 27.3584 28.1504 78.0742 63.6387 80.5576c38.4258 2.68848 52.8555 -50.2549 59.0771 -78.6738c4.05762 -18.541 7.2998 -37.5322 9.68359 -56.6797
c8.6582 26.1846 18.9873 51.7803 31.1787 75.8867c9.62012 19.0264 23.5176 46.3711 43.7471 56.2285c17.2705 8.41699 40.6992 2.01758 53.5361 -11.6533c19.2148 -20.4668 24.8691 -50.8828 29.6113 -77.5645c5.27441 -29.668 7.57617 -59.7754 11.4531 -89.6416
c1.38672 -10.6914 2.38672 -21.29 7.22852 -31.0762c5.15039 -10.4072 10.4004 -7.40625 19.0654 -0.169922c4.15039 3.46582 7.91699 7.50195 11.3008 11.709c16.5791 20.6152 25.3018 46.8066 37.124 70.1787z" />
    <glyph glyph-name="n" unicode="n" horiz-adv-x="302" 
d="M302.292 91.9766c4.14648 8.36426 28.6982 5.63281 24.1045 -3.78809c-19.4766 -39.9619 -43.1211 -104.401 -94.9688 -108.846c-24.8584 -2.13184 -54.626 7.36328 -72.8115 24.7832c-20.8672 19.9883 -14.4395 58.1475 -12.4746 83.9102
c2.33398 30.6543 5.9375 61.1875 7.46973 91.9092c0.251953 5.05078 3.09277 30.5439 -0.191406 32.0762c-4.64648 2.16699 -22.9561 -36.4854 -24.3818 -39.5928c-24.5068 -53.4443 -40.458 -110.39 -57.5977 -166.508
c-0.443359 -2.63867 -1.35156 -6.04004 -0.791016 -7.94824c5.49414 -18.7393 -26.834 -21.1836 -38.3057 -16.7852c-39.0781 14.9902 -42.959 75.6982 -44.6934 111.847c-2.125 44.3242 0.836914 89.7266 10.9248 132.955c6.19629 26.5498 73.7998 29.2246 72.3809 0
c-1.88672 -38.8193 -6.80664 -77.4121 -6.37402 -116.345c0.120117 -10.7266 0.485352 -21.4746 1.08789 -32.208c10.0312 32.7471 21.4951 65.0615 35.2402 96.3008c8.64062 19.6406 20.2188 46.9531 42.1113 55.1719c18.3916 6.90625 38.9785 -2.59277 51.6133 -16.2773
c18.2178 -19.7363 22.7861 -52.7773 24.751 -78.3555c2.36621 -30.7744 0.393555 -61.6836 2.66699 -92.4512c0.745117 -10.0635 0.432617 -21.9502 2.74219 -31.6621c4.54785 -19.1299 21.8828 -7.76465 30.5127 2.06836c20.2041 23.0205 33.502 52.5391 46.9844 79.7451z
" />
    <glyph glyph-name="o" unicode="o" horiz-adv-x="242" 
d="M218.73 112.986c9.6377 2.54688 29.4521 -7.27734 13.0361 -12.7119c-15.3018 -5.05859 -31.1143 -8.99219 -47.0547 -11.5391c-10.7725 -50.8936 -40.252 -100.085 -94.6641 -106.785c-35.8467 -4.41211 -73.5488 11.2061 -86.2578 46.748
c-13.834 38.6914 -6.68262 81.0293 2.65723 120.016c-1.01465 1.33398 -2.04004 2.64258 -3.02637 4.02246c-20.9814 29.416 -30.7256 70.335 -9.71582 102.561c16.6426 25.5244 48.584 37.4316 78.1592 36.1016c77.5254 -3.47949 115.451 -82.1074 117.576 -150.847
c0.34082 -11 -0.244141 -22.6768 -1.7832 -34.5098c10.3438 1.84082 20.7227 4.20996 31.0732 6.94434zM109.13 14.3604c26.0713 13.1104 40.1846 41.0576 46.793 71.3643c-30.6543 -1.49707 -60.9248 2.74902 -88.1416 14.625
c-5.19629 -48.418 -3.62109 -108.602 41.3486 -85.9893zM158.812 102.459c2.69238 20.6191 2.38184 41.2812 0.37793 58.2217c-5.73926 48.499 -39.6279 125.514 -101.439 113.691c-30.1357 -5.76367 -47.2891 -33.4805 -46.3672 -62.8398
c0.486328 -15.4902 5.62598 -30.1221 13.4512 -43.3105c21.2295 5.48047 54.2637 -1.32617 50.8018 -17.9512c-1.12402 -5.39551 -3.13867 -15.71 -5.05762 -28.4014c27.0752 -16.7529 57.1611 -21.4248 88.2334 -19.4102z" />
    <glyph glyph-name="o" unicode="&#xf6;" horiz-adv-x="242" 
d="M218.73 112.986c9.6377 2.54688 29.4521 -7.27734 13.0361 -12.7119c-15.3018 -5.05859 -31.1143 -8.99219 -47.0547 -11.5391c-10.7725 -50.8936 -40.252 -100.085 -94.6641 -106.785c-35.8467 -4.41211 -73.5488 11.2061 -86.2578 46.748
c-13.834 38.6914 -6.68262 81.0293 2.65723 120.016c-1.01465 1.33398 -2.04004 2.64258 -3.02637 4.02246c-20.9814 29.416 -30.7256 70.335 -9.71582 102.561c16.6426 25.5244 48.584 37.4316 78.1592 36.1016c77.5254 -3.47949 115.451 -82.1074 117.576 -150.847
c0.34082 -11 -0.244141 -22.6768 -1.7832 -34.5098c10.3438 1.84082 20.7227 4.20996 31.0732 6.94434zM109.13 14.3604c26.0713 13.1104 40.1846 41.0576 46.793 71.3643c-30.6543 -1.49707 -60.9248 2.74902 -88.1416 14.625
c-5.19629 -48.418 -3.62109 -108.602 41.3486 -85.9893zM158.812 102.459c2.69238 20.6191 2.38184 41.2812 0.37793 58.2217c-5.73926 48.499 -39.6279 125.514 -101.439 113.691c-30.1357 -5.76367 -47.2891 -33.4805 -46.3672 -62.8398
c0.486328 -15.4902 5.62598 -30.1221 13.4512 -43.3105c21.2295 5.48047 54.2637 -1.32617 50.8018 -17.9512c-1.12402 -5.39551 -3.13867 -15.71 -5.05762 -28.4014c27.0752 -16.7529 57.1611 -21.4248 88.2334 -19.4102z" />
    <glyph glyph-name="o" unicode="&#xf5;" horiz-adv-x="242" 
d="M218.73 112.986c9.6377 2.54688 29.4521 -7.27734 13.0361 -12.7119c-15.3018 -5.05859 -31.1143 -8.99219 -47.0547 -11.5391c-10.7725 -50.8936 -40.252 -100.085 -94.6641 -106.785c-35.8467 -4.41211 -73.5488 11.2061 -86.2578 46.748
c-13.834 38.6914 -6.68262 81.0293 2.65723 120.016c-1.01465 1.33398 -2.04004 2.64258 -3.02637 4.02246c-20.9814 29.416 -30.7256 70.335 -9.71582 102.561c16.6426 25.5244 48.584 37.4316 78.1592 36.1016c77.5254 -3.47949 115.451 -82.1074 117.576 -150.847
c0.34082 -11 -0.244141 -22.6768 -1.7832 -34.5098c10.3438 1.84082 20.7227 4.20996 31.0732 6.94434zM109.13 14.3604c26.0713 13.1104 40.1846 41.0576 46.793 71.3643c-30.6543 -1.49707 -60.9248 2.74902 -88.1416 14.625
c-5.19629 -48.418 -3.62109 -108.602 41.3486 -85.9893zM158.812 102.459c2.69238 20.6191 2.38184 41.2812 0.37793 58.2217c-5.73926 48.499 -39.6279 125.514 -101.439 113.691c-30.1357 -5.76367 -47.2891 -33.4805 -46.3672 -62.8398
c0.486328 -15.4902 5.62598 -30.1221 13.4512 -43.3105c21.2295 5.48047 54.2637 -1.32617 50.8018 -17.9512c-1.12402 -5.39551 -3.13867 -15.71 -5.05762 -28.4014c27.0752 -16.7529 57.1611 -21.4248 88.2334 -19.4102z" />
    <glyph glyph-name="o" unicode="&#xf4;" horiz-adv-x="242" 
d="M218.73 112.986c9.6377 2.54688 29.4521 -7.27734 13.0361 -12.7119c-15.3018 -5.05859 -31.1143 -8.99219 -47.0547 -11.5391c-10.7725 -50.8936 -40.252 -100.085 -94.6641 -106.785c-35.8467 -4.41211 -73.5488 11.2061 -86.2578 46.748
c-13.834 38.6914 -6.68262 81.0293 2.65723 120.016c-1.01465 1.33398 -2.04004 2.64258 -3.02637 4.02246c-20.9814 29.416 -30.7256 70.335 -9.71582 102.561c16.6426 25.5244 48.584 37.4316 78.1592 36.1016c77.5254 -3.47949 115.451 -82.1074 117.576 -150.847
c0.34082 -11 -0.244141 -22.6768 -1.7832 -34.5098c10.3438 1.84082 20.7227 4.20996 31.0732 6.94434zM109.13 14.3604c26.0713 13.1104 40.1846 41.0576 46.793 71.3643c-30.6543 -1.49707 -60.9248 2.74902 -88.1416 14.625
c-5.19629 -48.418 -3.62109 -108.602 41.3486 -85.9893zM158.812 102.459c2.69238 20.6191 2.38184 41.2812 0.37793 58.2217c-5.73926 48.499 -39.6279 125.514 -101.439 113.691c-30.1357 -5.76367 -47.2891 -33.4805 -46.3672 -62.8398
c0.486328 -15.4902 5.62598 -30.1221 13.4512 -43.3105c21.2295 5.48047 54.2637 -1.32617 50.8018 -17.9512c-1.12402 -5.39551 -3.13867 -15.71 -5.05762 -28.4014c27.0752 -16.7529 57.1611 -21.4248 88.2334 -19.4102z" />
    <glyph glyph-name="o" unicode="&#xf3;" horiz-adv-x="242" 
d="M218.73 112.986c9.6377 2.54688 29.4521 -7.27734 13.0361 -12.7119c-15.3018 -5.05859 -31.1143 -8.99219 -47.0547 -11.5391c-10.7725 -50.8936 -40.252 -100.085 -94.6641 -106.785c-35.8467 -4.41211 -73.5488 11.2061 -86.2578 46.748
c-13.834 38.6914 -6.68262 81.0293 2.65723 120.016c-1.01465 1.33398 -2.04004 2.64258 -3.02637 4.02246c-20.9814 29.416 -30.7256 70.335 -9.71582 102.561c16.6426 25.5244 48.584 37.4316 78.1592 36.1016c77.5254 -3.47949 115.451 -82.1074 117.576 -150.847
c0.34082 -11 -0.244141 -22.6768 -1.7832 -34.5098c10.3438 1.84082 20.7227 4.20996 31.0732 6.94434zM109.13 14.3604c26.0713 13.1104 40.1846 41.0576 46.793 71.3643c-30.6543 -1.49707 -60.9248 2.74902 -88.1416 14.625
c-5.19629 -48.418 -3.62109 -108.602 41.3486 -85.9893zM158.812 102.459c2.69238 20.6191 2.38184 41.2812 0.37793 58.2217c-5.73926 48.499 -39.6279 125.514 -101.439 113.691c-30.1357 -5.76367 -47.2891 -33.4805 -46.3672 -62.8398
c0.486328 -15.4902 5.62598 -30.1221 13.4512 -43.3105c21.2295 5.48047 54.2637 -1.32617 50.8018 -17.9512c-1.12402 -5.39551 -3.13867 -15.71 -5.05762 -28.4014c27.0752 -16.7529 57.1611 -21.4248 88.2334 -19.4102z" />
    <glyph glyph-name="p" unicode="p" horiz-adv-x="288" 
d="M261.28 100.387c8.48828 5.30664 33.0146 -2.53027 19.4326 -11.082c-15.6211 -9.83203 -32.7676 -13.3828 -50.375 -13.8799c-0.574219 -1.75586 -1.16699 -3.50488 -1.79883 -5.23926c-10.5352 -28.9512 -30.8779 -58.5908 -61.667 -67.9121
c-26.9688 -8.16504 -75.0889 0.869141 -67.8027 37.9287c5.30957 27.0039 20.7607 50.7656 49.4004 55.8916c9.33203 1.66699 18.8135 1.42578 28.3271 0.457031c1.30176 4.24609 2.49707 8.52344 3.60059 12.8369c7.25781 28.3662 11.8438 63.6104 3.15332 92.1572
c-2.1748 7.14355 -5.09375 14.8086 -10.7793 19.9346c-9.38867 8.45996 -15.2168 1.81641 -22.1943 -5.72852c-11.3574 -12.2871 -18.2744 -28.7744 -24.4961 -44.0869c-13.6846 -33.6973 -22.1445 -69.292 -28.8164 -104.965
c-12.7803 -68.3271 -17.7285 -138.095 -15.4443 -207.55c1.43652 -17.8174 1.27344 -35.5703 -3.87695 -52.8164c-4.77441 -15.9863 -36.4609 -9.97754 -43.6084 0c-20.0762 28.0146 -24.333 64.9004 -29.8135 98.3066c-5.57617 34.0098 -9.38184 68.1572 -11.9854 102.518
c-5.13965 67.8447 -7.50879 138.308 1.66406 205.897c3.87012 28.501 73.7305 29.1572 73.7695 0c0.0712891 -52.9014 -1.70215 -105.555 -0.878906 -158.35c3.37305 19.8887 7.41992 39.6777 12.2295 59.3184c10.3896 42.4229 38.7559 153.89 104.902 124.367
c26.7871 -11.9541 43.9307 -44.0947 50.1914 -71.2197c5.74316 -24.8682 5.7998 -50.8359 0.301758 -75.6836c9.08398 0.950195 17.9766 3.5293 26.5645 8.89941zM164.503 66.3613c2.53613 4.68555 4.74512 9.50098 6.73145 14.3994
c-11.2939 0.408203 -21.7646 -1.98242 -27.252 -12.8047c-2.75586 -5.44141 -4.72852 -13.9336 -3.54688 -20.0879c0.858398 -2.74219 2.0498 -5.31055 3.54004 -7.71875c3.30957 2.98633 6.82812 6.0791 7.47754 6.84863c5.05859 6.00879 9.31152 12.457 13.0498 19.3633z
" />
    <glyph glyph-name="q" unicode="q" horiz-adv-x="330" 
d="M326.238 106.821c1.4541 10.2012 26.7988 9.44141 25.5498 -0.00488281c-9.9248 -75.0527 -19.2822 -150.208 -29.8203 -225.176c-3.6709 -26.1064 -8.18945 -52.3867 -17.4336 -77.1807c-7.80762 -20.9385 -20.1553 -48.1309 -41.6152 -58.1514
c-20.0625 -9.36816 -45.9883 -5.4873 -62.3975 9.48145c-20.6406 18.8281 -27.6494 50.4785 -32.9668 76.7451c-5.80664 28.6855 -8.72949 58.0801 -10.2266 87.6348c-6.43457 -0.429688 -12.834 -0.869141 -19.1338 -1.37598
c-14.1953 -1.13867 -27.9971 13.1699 -7.89551 16.3271c8.64062 1.3584 17.4092 2.84082 26.2344 4.32324c-0.918945 28.8906 -0.762695 57.8203 -0.851562 86.2783c-0.0605469 19.7188 -0.238281 39.5078 -0.227539 59.3115
c-6.91309 -21.499 -15.1738 -42.3379 -25.709 -61.7656c-10.751 -19.8174 -24.6201 -37.4004 -47.4668 -43.0088c-22.0098 -5.40234 -47.5381 2.47949 -63.9287 17.8525c-36.2197 33.9668 -40.6221 99.4316 -30.8672 144.81
c11.4463 53.2598 42.6357 96.1084 99.9102 101.961c27.3379 2.79492 54.4023 -2.92969 76.0781 -16.7168c7.58691 25.2734 72.5195 24.2559 70.9912 -2.57812c-4.125 -72.3926 -5.46191 -144.52 -6.05078 -217.008
c-0.163086 -19.7217 -0.489258 -39.5107 -0.723633 -59.3145c7.63379 0.624023 15.2461 1.09961 22.7764 1.2168c17.1855 0.269531 23.1484 -15.043 4.57617 -19.2676c-8.98828 -2.04688 -18.2139 -3.63281 -27.5605 -4.92773
c-0.251953 -41.0928 0.34082 -82.207 4.15039 -122.974c0.776367 -8.31445 2.41895 -38.8828 13.3867 -41.7988c11.709 -3.11035 25.4326 31.0479 28.8809 39.0967c12.2051 28.4834 17.0684 59.3965 21.502 89.8555c10.4961 72.0879 20.5625 144.235 30.8389 216.354z
M117.826 62.127c15.5186 40.6885 26.5566 82.9229 36.8506 125.236c-11.3506 11.8652 -26.0244 22.4961 -40.7734 25.3164c-19.3457 3.69922 -36.4111 -9.26172 -46.584 -24.6738c-25.2236 -38.2021 -28.8877 -90.958 -19.1758 -134.641
c2.37695 -10.6875 13.6035 -58.3428 30.3916 -54.5156c10.0771 2.29883 18.9375 20.4492 23.5986 28.7568c6.19629 11.0527 11.1836 22.6943 15.6924 34.5205z" />
    <glyph glyph-name="r" unicode="r" horiz-adv-x="262" 
d="M258.823 101.61c2.29883 9.88574 27.1143 9.01367 25.2773 -0.00292969c-8.07715 -39.5254 -16.4941 -79.6709 -33.4209 -116.525c-13.7275 -29.8877 -32.7012 -60.1729 -70.7471 -49.0459c-36.7588 10.751 -50.0322 55.54 -57.3574 88.6807
c-5.27441 23.8652 -7.12598 48.4639 -7.35254 73.0527c-6.00195 -6.05176 -12.8545 -11.2764 -20.9131 -15.2422c-23.748 -11.6875 -50.209 -16.0996 -74.2012 -2.15918c-50.7695 29.4941 -48.7012 107.967 -19.5479 151.674
c16.1289 24.1768 39.501 44.9414 69.7363 46.4062c24.3184 1.18164 44.3916 -10.8926 47.5986 -36.0557c6.33887 -49.7227 -25.585 -100.343 -61.957 -134.008c5.33105 -11.8369 13.6348 -19.2646 28.0215 -9.80469c14.6172 9.60938 23.9492 25.752 32.1465 41.1885
c0.0634766 1.50391 0.126953 3.01172 0.198242 4.51562c1.36523 29.1963 74.2256 28.8135 74.0449 0c-0.358398 -57.2217 -2.43652 -114.628 11.709 -170.644c0.206055 -0.805664 1.79492 -5.08301 3.23828 -8.875c0.351562 0.180664 0.699219 0.358398 1.08594 0.546875
c1.46875 1.38379 2.94043 2.77051 4.41211 4.15723c10.0244 10.9502 15.916 26.7881 21.3711 40.416c11.8584 29.6182 19.4492 60.7158 26.6572 91.7246zM49.2539 130.949c17.1611 19.5732 30.5547 42.3506 37.876 67.5771c2.95508 10.1836 4.78906 21.002 4.4873 31.6328
c-0.138672 4.8916 -0.62793 9.93164 -2.29492 14.585c-0.237305 0.669922 -5.24609 11.4883 -4.30957 11.0059c1.75977 2.29883 1.06445 1.73145 -2.08887 -1.70215c-0.897461 -1.19141 -1.79883 -2.38281 -2.69629 -3.57129
c-2.56055 -3.19238 -4.89844 -6.60156 -7.03418 -10.085c-4.04004 -6.58691 -7.00586 -13.6953 -10.1699 -20.7188c-12.8262 -28.4795 -19.4199 -58.3105 -13.7695 -88.7236z" />
    <glyph glyph-name="s" unicode="s" horiz-adv-x="184" 
d="M199.119 108.453c15.8486 0.0820312 15.4902 -14.0684 -0.00683594 -14.7207c-27.5889 -1.16309 -59.2715 -13.415 -84.4873 -32.6191c18.2354 -15.5859 35.6162 -31.8711 46.2578 -53.7285c5.27051 -10.8291 8.67188 -23.9141 5.01855 -35.7402
c-3.40137 -11.0029 -13.6807 -17.3555 -23.0488 -23.5059c-19.6611 -12.915 -43.0117 -17.9873 -65.6318 -9.79395c-45.5234 16.4902 -40.1953 63.4854 -18.5869 96.6582c-29.0684 22.332 -61.8184 44.5615 -73.8994 79.6992
c-15.9688 46.4561 10.2549 102.939 51.9258 127.209c18.7783 10.9395 42.5938 14.1465 63.3369 6.98535c21.9277 -7.56641 32.0195 -26.3623 35.8682 -48.1133c1.80859 -10.2158 -25.373 -10.7197 -27.7676 0c-4.72852 21.1689 -21.4277 44.0723 -44.8848 28.7168
c-12.3789 -8.10156 -21.5625 -25.1807 -23.2578 -39.6914c-3.29492 -28.21 9.01367 -61.6445 26.5039 -83.4131c9.43848 -11.748 20.7393 -21.9492 32.3701 -31.8809c29.3838 20.6904 65.1348 33.7578 100.29 33.9385zM117.029 -31.2529
c-3.9834 19.7363 -23.9111 37.3867 -38.8799 50.4043c-2.79199 -5.45898 -5.04785 -11.1025 -6.61523 -16.9131c-4.43359 -16.4229 -1 -34.9531 13.3018 -45.541c12.1631 -9.00586 36.2119 -7.86035 32.1934 12.0498z" />
    <glyph glyph-name="t" unicode="t" horiz-adv-x="196" 
d="M194.169 105.189c2.4541 7.72168 26.1914 6.82129 24.5459 -1.88672c-7.25 -38.5107 -17.749 -78.4121 -37.1055 -112.755c-18.207 -32.3037 -48.8252 -56.0654 -87.8857 -51.3936c-66.167 7.91699 -89.4355 80.749 -98.1436 136.719
c-10.7266 68.9199 -10.5527 139.848 -8.44531 209.385c1.3125 43.2783 3.12109 86.6416 5.70703 129.938c-11.8652 0.0498047 -23.7266 0.188477 -35.5771 0.408203c-16.3525 0.301758 -16.3486 15.6533 0 15.3516c12.1953 -0.226562 24.376 -0.308594 36.5527 -0.28418
c1.43652 22.3926 3.06445 44.7676 4.9834 67.0928c2.77051 32.2461 82.5449 31.9766 82.084 0c-0.31543 -21.7969 -1.24121 -43.5791 -2.4082 -65.3545c9.25781 0.326172 18.5156 0.677734 27.7803 1.06445c16.4297 0.68457 15.8447 -14.1631 0 -15.1953
c-9.53809 -0.621094 -19.0908 -1.10742 -28.6436 -1.52637c-2.44727 -41.5186 -5.625 -83.0127 -7.48047 -124.531c-2.73828 -61.3613 -4.20703 -123.099 -1.05762 -184.471c1.39746 -27.2627 3.44043 -54.1641 8.36719 -81.0479
c3.96582 -21.6406 9.23633 -56.4414 32.0049 -66.2988c8.09082 -3.50488 7.8252 -2.89453 15.9766 1.95801c6.3457 3.77734 11.6768 9.16504 16.4268 14.7734c10.9424 12.9219 18.6748 28.6816 25.2402 44.1758c11.5205 27.1924 18.1641 55.832 27.0781 83.8789z" />
    <glyph glyph-name="u" unicode="u" horiz-adv-x="359" 
d="M357.583 108.747c3.38086 8.70801 28.21 6.70703 24.6377 -3.86719c-13.0781 -38.752 -25.4854 -80.6533 -56.3984 -109.445c-27.9541 -26.0391 -60.6797 -34.6162 -96.3213 -16.9521c-40.0605 19.8535 -49.999 69.9707 -55.4014 110.354
c-1.39062 10.3721 -2.50781 21.0527 -3.32031 31.8887c-2.07129 -7.9707 -4.23828 -15.8701 -6.61816 -23.6387c-10.3613 -33.8281 -22.5918 -89.0957 -60.5488 -102.465c-46.4844 -16.373 -87.0527 20.2363 -102.845 60.7725
c-18.6221 47.8076 -17.4053 102.571 -13.0957 152.815c2.40137 27.9648 71.8281 27.5215 70.998 0c-1.23047 -40.8838 -5.19922 -82.165 2.58984 -122.701c3.33789 -17.377 8.43848 -34.8643 16.0117 -50.8975c2.36914 -5.01562 8.01953 -18.3203 14.2451 -19.0332
c4.77441 -0.542969 14.7734 11.499 17.3486 15.5c19.4736 30.2529 28.9688 69.8701 39.0137 104.032c9.22949 31.3984 16.1396 65.0459 28.7314 95.5078c0.134766 0.621094 0.251953 1.25293 0.390625 1.87012c6.41992 28.3877 72.7041 31.1367 75.9854 0
c3.71387 -35.2051 -1.21973 -70.8428 -0.925781 -106.186c0.273438 -32.7539 1.49023 -67.2598 8.60938 -99.3359c1.94727 -8.77539 6.46582 -30.2002 16.0361 -34.4287c14.4258 -6.37793 35.4814 21.7539 42.125 31.2246c17.9307 25.5635 27.5605 56.1396 38.752 84.9844z
" />
    <glyph glyph-name="u" unicode="&#xfc;" horiz-adv-x="359" 
d="M357.583 108.747c3.38086 8.70801 28.21 6.70703 24.6377 -3.86719c-13.0781 -38.752 -25.4854 -80.6533 -56.3984 -109.445c-27.9541 -26.0391 -60.6797 -34.6162 -96.3213 -16.9521c-40.0605 19.8535 -49.999 69.9707 -55.4014 110.354
c-1.39062 10.3721 -2.50781 21.0527 -3.32031 31.8887c-2.07129 -7.9707 -4.23828 -15.8701 -6.61816 -23.6387c-10.3613 -33.8281 -22.5918 -89.0957 -60.5488 -102.465c-46.4844 -16.373 -87.0527 20.2363 -102.845 60.7725
c-18.6221 47.8076 -17.4053 102.571 -13.0957 152.815c2.40137 27.9648 71.8281 27.5215 70.998 0c-1.23047 -40.8838 -5.19922 -82.165 2.58984 -122.701c3.33789 -17.377 8.43848 -34.8643 16.0117 -50.8975c2.36914 -5.01562 8.01953 -18.3203 14.2451 -19.0332
c4.77441 -0.542969 14.7734 11.499 17.3486 15.5c19.4736 30.2529 28.9688 69.8701 39.0137 104.032c9.22949 31.3984 16.1396 65.0459 28.7314 95.5078c0.134766 0.621094 0.251953 1.25293 0.390625 1.87012c6.41992 28.3877 72.7041 31.1367 75.9854 0
c3.71387 -35.2051 -1.21973 -70.8428 -0.925781 -106.186c0.273438 -32.7539 1.49023 -67.2598 8.60938 -99.3359c1.94727 -8.77539 6.46582 -30.2002 16.0361 -34.4287c14.4258 -6.37793 35.4814 21.7539 42.125 31.2246c17.9307 25.5635 27.5605 56.1396 38.752 84.9844z
" />
    <glyph glyph-name="u" unicode="&#xfb;" horiz-adv-x="359" 
d="M357.583 108.747c3.38086 8.70801 28.21 6.70703 24.6377 -3.86719c-13.0781 -38.752 -25.4854 -80.6533 -56.3984 -109.445c-27.9541 -26.0391 -60.6797 -34.6162 -96.3213 -16.9521c-40.0605 19.8535 -49.999 69.9707 -55.4014 110.354
c-1.39062 10.3721 -2.50781 21.0527 -3.32031 31.8887c-2.07129 -7.9707 -4.23828 -15.8701 -6.61816 -23.6387c-10.3613 -33.8281 -22.5918 -89.0957 -60.5488 -102.465c-46.4844 -16.373 -87.0527 20.2363 -102.845 60.7725
c-18.6221 47.8076 -17.4053 102.571 -13.0957 152.815c2.40137 27.9648 71.8281 27.5215 70.998 0c-1.23047 -40.8838 -5.19922 -82.165 2.58984 -122.701c3.33789 -17.377 8.43848 -34.8643 16.0117 -50.8975c2.36914 -5.01562 8.01953 -18.3203 14.2451 -19.0332
c4.77441 -0.542969 14.7734 11.499 17.3486 15.5c19.4736 30.2529 28.9688 69.8701 39.0137 104.032c9.22949 31.3984 16.1396 65.0459 28.7314 95.5078c0.134766 0.621094 0.251953 1.25293 0.390625 1.87012c6.41992 28.3877 72.7041 31.1367 75.9854 0
c3.71387 -35.2051 -1.21973 -70.8428 -0.925781 -106.186c0.273438 -32.7539 1.49023 -67.2598 8.60938 -99.3359c1.94727 -8.77539 6.46582 -30.2002 16.0361 -34.4287c14.4258 -6.37793 35.4814 21.7539 42.125 31.2246c17.9307 25.5635 27.5605 56.1396 38.752 84.9844z
" />
    <glyph glyph-name="u" unicode="&#xfa;" horiz-adv-x="359" 
d="M357.583 108.747c3.38086 8.70801 28.21 6.70703 24.6377 -3.86719c-13.0781 -38.752 -25.4854 -80.6533 -56.3984 -109.445c-27.9541 -26.0391 -60.6797 -34.6162 -96.3213 -16.9521c-40.0605 19.8535 -49.999 69.9707 -55.4014 110.354
c-1.39062 10.3721 -2.50781 21.0527 -3.32031 31.8887c-2.07129 -7.9707 -4.23828 -15.8701 -6.61816 -23.6387c-10.3613 -33.8281 -22.5918 -89.0957 -60.5488 -102.465c-46.4844 -16.373 -87.0527 20.2363 -102.845 60.7725
c-18.6221 47.8076 -17.4053 102.571 -13.0957 152.815c2.40137 27.9648 71.8281 27.5215 70.998 0c-1.23047 -40.8838 -5.19922 -82.165 2.58984 -122.701c3.33789 -17.377 8.43848 -34.8643 16.0117 -50.8975c2.36914 -5.01562 8.01953 -18.3203 14.2451 -19.0332
c4.77441 -0.542969 14.7734 11.499 17.3486 15.5c19.4736 30.2529 28.9688 69.8701 39.0137 104.032c9.22949 31.3984 16.1396 65.0459 28.7314 95.5078c0.134766 0.621094 0.251953 1.25293 0.390625 1.87012c6.41992 28.3877 72.7041 31.1367 75.9854 0
c3.71387 -35.2051 -1.21973 -70.8428 -0.925781 -106.186c0.273438 -32.7539 1.49023 -67.2598 8.60938 -99.3359c1.94727 -8.77539 6.46582 -30.2002 16.0361 -34.4287c14.4258 -6.37793 35.4814 21.7539 42.125 31.2246c17.9307 25.5635 27.5605 56.1396 38.752 84.9844z
" />
    <glyph glyph-name="v" unicode="v" horiz-adv-x="292" 
d="M295.586 107.921c8.31055 4.14648 31.8506 -3.78516 18.457 -10.5215c-27.0752 -13.624 -56.8887 -13.8438 -84.4248 -4.91602c-0.986328 -2.3623 -1.94434 -4.74609 -2.95215 -7.08691c-14.3447 -33.2969 -35.8047 -72.918 -68.0264 -92.207
c-34.002 -20.3564 -78.6211 -7.22852 -104.767 19.8105c-29.4551 30.4619 -45.4346 75.7334 -56.0762 115.858c-11.4746 43.2637 -19.3281 88.0029 -19.7959 132.816c-0.287109 27.6172 66.4443 27.0039 69.8887 0c9.13379 -71.5625 17.9346 -139.691 45.9277 -206.912
c5.0293 -12.0811 10.4453 -25.1768 18.8799 -35.3213c11.7266 -14.1064 22.5703 -16.1279 37.4678 -3.72363c22.4854 18.7217 37.543 47.666 49.2344 73.9639c1.94336 4.37402 3.90137 8.85352 5.85938 13.4111c-34.832 19.1299 -62.6904 52.6885 -71.0615 90.1816
c-7.99121 35.7861 -1.51465 76.1875 20.8994 105.784c19.7891 26.1279 58.1328 39.291 87.0342 19.3457c33.1514 -22.875 27.6963 -73.9141 22.2588 -108.189c-5.45898 -34.4062 -15.6465 -68.8555 -28.3271 -101.684c19.4736 -7.4668 41.1641 -9.77637 59.5234 -0.610352z
M212.544 120.562c19.626 48.709 36.1299 104.752 27.3789 154.542c-3.54688 20.1973 -17.416 44.5869 -41.6777 34.0908c-12.9326 -5.59766 -21.7686 -19.4707 -27.749 -31.627c-13.1738 -26.7842 -16.1602 -58.9424 -8.36328 -87.7842
c7.23926 -26.7842 23.6621 -50.3018 46.2354 -66.3877c1.35156 -0.960938 2.75293 -1.9043 4.17578 -2.83398z" />
    <glyph glyph-name="w" unicode="w" horiz-adv-x="442" 
d="M449.474 112.947c9.2832 2.34473 28.5791 -7.21777 12.6133 -12.29c-24.1201 -7.66895 -50.1943 -9.24023 -75.1875 -5.19336c-18.4697 -60.0557 -54.54 -137.979 -125.918 -118.896c-50.8652 13.5957 -76.5605 67.0996 -90.0254 120.505
c-16.1787 -59.8535 -46.7188 -121.119 -108.254 -109.215c-99.8359 19.3135 -81.0293 162.619 -64.4854 232.6c4.90527 20.7539 67.582 16.7139 62.9248 -4.85645c-8.2041 -37.9854 -15.2588 -76.4004 -14.6562 -115.433
c0.432617 -27.8447 2.75977 -62.6416 22.0059 -84.6729c6.6582 -7.62305 12.5283 -12.1133 22.2402 -7.34277c7.22852 3.55078 13.7305 10.6875 18.7812 16.8662c10.5664 12.9219 17.8418 28.1777 24.0352 43.583c12.3506 30.7324 19.9062 62.9648 25.6387 95.502
c-0.15918 1.4082 -0.322266 2.82324 -0.47168 4.19629c-2.6709 24.7412 63.1201 27.3447 68.3662 5.27441c12.8301 -53.9863 17.459 -124.421 58.165 -166.539c4.56152 -4.7207 6.64746 -7.26367 12.958 -6.23145c6.77832 1.10645 12.4932 6.81348 17.1182 11.5381
c9.66211 9.86816 16.9014 21.9961 23.3184 34.166c9.26855 17.5684 16.4873 36.2441 22.6133 55.207c-41.7422 13.8867 -76.9219 44.6113 -89.2305 89.9678c-8.83887 32.5801 -3.04688 67.749 16.5508 95.3525c17.0469 24.0098 45.7354 43.4229 76.1445 33.9092
c33.9707 -10.623 41.5264 -47.3535 43.499 -78.5674c2.59961 -41.1855 -3.91602 -82.4912 -14.3271 -122.251c-0.745117 -2.84473 -1.54688 -5.81738 -2.38379 -8.84668c18.7285 -3.65723 38.5605 -3.22754 57.9668 1.66699zM383.04 216.175
c0.706055 25.752 1.91113 62.2607 -16.7891 82.6387c-26.252 28.6074 -56.7529 -19.3389 -64.4678 -41.7705c-8.52344 -24.7832 -7.59082 -51.9541 2.56836 -76.1094c12.3896 -29.4658 35.0693 -50.5391 62.1621 -62.0244c0.510742 1.7627 1.03613 3.52246 1.5332 5.28223
c8.47754 29.9873 14.1387 60.7793 14.9932 91.9834z" />
    <glyph glyph-name="x" unicode="x" horiz-adv-x="226" 
d="M224.488 110.439c4.9834 8.41699 30.7861 5.44922 25.4336 -3.99707c-19.1719 -33.8535 -37.2549 -72.1582 -70.6396 -94.416c-29.7139 -19.8145 -68.2705 -26.8623 -101.442 -11.957c-21.2539 9.54883 -37.0244 23.5176 -48.8047 40.3203
c-8.93164 -16.2207 -17.7178 -32.5156 -26.4756 -48.8037c-4.58984 -8.53809 -29.9268 -5.46973 -24.9043 3.91602c12.4004 23.1699 24.8789 46.3398 37.7588 69.2646c-21.7969 48.9814 -21.6055 111.992 -24.5674 162.18c-1.8584 31.5654 78.707 32.1895 81.8076 0
c2.00098 -20.7822 2.65039 -41.9727 3.71094 -63.124c15.0254 21.8076 30.9766 42.9912 48.2861 63.2383c6.14746 7.18945 31.3242 2.36914 22.7793 -7.59082c-25.2764 -29.4619 -47.6406 -60.96 -68.3271 -93.5723c3.11035 -29.6855 9.17969 -58.7471 23.2549 -85.9141
c39.3232 -75.9043 101.408 35.499 122.13 70.4561z" />
    <glyph glyph-name="y" unicode="y" horiz-adv-x="330" 
d="M331.4 91.75c3.625 8.1582 26.8662 6.79297 23.8301 -3.74219c-10.627 -36.9531 -58.2324 -60.3848 -88.6348 -78.9541c-5.61523 -3.42969 -11.2695 -6.78906 -16.9414 -10.1162c0.18457 -39.9404 -0.964844 -79.8555 -5.37012 -119.618
c-9.57324 -86.375 -44.6855 -180.862 -129.883 -218.376c-74.4248 -32.7715 -178.426 0.695312 -171.026 95.5479c6.72168 86.1621 97.0195 144.331 163.978 184.313c22.8574 13.6494 46.2119 26.4258 69.5479 39.2305c-2.47559 47.7646 -6.89551 95.6182 -10.0488 143.465
c-2.49707 -13.2129 -5.23145 -26.376 -8.45605 -39.4434c-9.7832 -39.6533 -22.6377 -77.582 -65.5537 -89.8408c-47.5205 -13.5713 -79.6113 29.416 -92.4521 68.9346c-16.0898 49.5176 -18.8037 103.841 -13.4297 155.295c2.64258 25.2832 65.5996 23.7402 63.2373 0
c-4.16797 -41.873 -2.97949 -84.3779 4.71387 -125.794c3.48633 -18.7744 7.77832 -37.1523 15.5039 -54.6855c2.9082 -6.59375 6.33496 -15.3516 11.4463 -20.7471c6.77148 -7.15137 11.833 -3.3877 18.5762 2.49023c14.0566 12.252 20.1963 32.0449 25.5312 49.291
c6.37793 20.623 11.085 41.7109 15.2852 62.873c7.20801 36.3184 13.2061 72.8359 22.4463 108.708c0.169922 0.993164 0.404297 1.9541 0.730469 2.87598c0.163086 0.621094 0.308594 1.24512 0.475586 1.86621c0.34082 1.28027 1.19531 2.30859 2.33008 3.14551
c15.5898 20.0059 74.1455 16.4414 75.2412 -10.4844c2.44434 -59.9844 4.54395 -120.143 6.16895 -180.159c0.330078 -12.1592 0.592773 -24.3184 0.78418 -36.4814c12.8408 7.81055 25.5215 15.8838 37.8721 24.4502c17.9912 12.4756 34.9746 25.4434 44.0977 45.9561z
M126.674 -292.424c57.9102 65.667 54.2168 164.536 51.3936 246.354c-0.0527344 1.53906 -0.130859 3.07812 -0.1875 4.61719c-10.0986 -5.62207 -20.1758 -11.2793 -30.1855 -17.0537c-35.0166 -20.1973 -69.4414 -41.7988 -100.411 -67.8984
c-30.8135 -25.9648 -61.1338 -57.6152 -71.3242 -97.8184c-9.90723 -39.0928 1.87988 -84.5312 40.4971 -102.912c40.0391 -19.0547 83.4053 4.30957 110.218 34.7119z" />
    <glyph glyph-name="y" unicode="&#xff;" horiz-adv-x="330" 
d="M331.4 91.75c3.625 8.1582 26.8662 6.79297 23.8301 -3.74219c-10.627 -36.9531 -58.2324 -60.3848 -88.6348 -78.9541c-5.61523 -3.42969 -11.2695 -6.78906 -16.9414 -10.1162c0.18457 -39.9404 -0.964844 -79.8555 -5.37012 -119.618
c-9.57324 -86.375 -44.6855 -180.862 -129.883 -218.376c-74.4248 -32.7715 -178.426 0.695312 -171.026 95.5479c6.72168 86.1621 97.0195 144.331 163.978 184.313c22.8574 13.6494 46.2119 26.4258 69.5479 39.2305c-2.47559 47.7646 -6.89551 95.6182 -10.0488 143.465
c-2.49707 -13.2129 -5.23145 -26.376 -8.45605 -39.4434c-9.7832 -39.6533 -22.6377 -77.582 -65.5537 -89.8408c-47.5205 -13.5713 -79.6113 29.416 -92.4521 68.9346c-16.0898 49.5176 -18.8037 103.841 -13.4297 155.295c2.64258 25.2832 65.5996 23.7402 63.2373 0
c-4.16797 -41.873 -2.97949 -84.3779 4.71387 -125.794c3.48633 -18.7744 7.77832 -37.1523 15.5039 -54.6855c2.9082 -6.59375 6.33496 -15.3516 11.4463 -20.7471c6.77148 -7.15137 11.833 -3.3877 18.5762 2.49023c14.0566 12.252 20.1963 32.0449 25.5312 49.291
c6.37793 20.623 11.085 41.7109 15.2852 62.873c7.20801 36.3184 13.2061 72.8359 22.4463 108.708c0.169922 0.993164 0.404297 1.9541 0.730469 2.87598c0.163086 0.621094 0.308594 1.24512 0.475586 1.86621c0.34082 1.28027 1.19531 2.30859 2.33008 3.14551
c15.5898 20.0059 74.1455 16.4414 75.2412 -10.4844c2.44434 -59.9844 4.54395 -120.143 6.16895 -180.159c0.330078 -12.1592 0.592773 -24.3184 0.78418 -36.4814c12.8408 7.81055 25.5215 15.8838 37.8721 24.4502c17.9912 12.4756 34.9746 25.4434 44.0977 45.9561z
M126.674 -292.424c57.9102 65.667 54.2168 164.536 51.3936 246.354c-0.0527344 1.53906 -0.130859 3.07812 -0.1875 4.61719c-10.0986 -5.62207 -20.1758 -11.2793 -30.1855 -17.0537c-35.0166 -20.1973 -69.4414 -41.7988 -100.411 -67.8984
c-30.8135 -25.9648 -61.1338 -57.6152 -71.3242 -97.8184c-9.90723 -39.0928 1.87988 -84.5312 40.4971 -102.912c40.0391 -19.0547 83.4053 4.30957 110.218 34.7119z" />
    <glyph glyph-name="y" unicode="&#xfd;" horiz-adv-x="330" 
d="M331.4 91.75c3.625 8.1582 26.8662 6.79297 23.8301 -3.74219c-10.627 -36.9531 -58.2324 -60.3848 -88.6348 -78.9541c-5.61523 -3.42969 -11.2695 -6.78906 -16.9414 -10.1162c0.18457 -39.9404 -0.964844 -79.8555 -5.37012 -119.618
c-9.57324 -86.375 -44.6855 -180.862 -129.883 -218.376c-74.4248 -32.7715 -178.426 0.695312 -171.026 95.5479c6.72168 86.1621 97.0195 144.331 163.978 184.313c22.8574 13.6494 46.2119 26.4258 69.5479 39.2305c-2.47559 47.7646 -6.89551 95.6182 -10.0488 143.465
c-2.49707 -13.2129 -5.23145 -26.376 -8.45605 -39.4434c-9.7832 -39.6533 -22.6377 -77.582 -65.5537 -89.8408c-47.5205 -13.5713 -79.6113 29.416 -92.4521 68.9346c-16.0898 49.5176 -18.8037 103.841 -13.4297 155.295c2.64258 25.2832 65.5996 23.7402 63.2373 0
c-4.16797 -41.873 -2.97949 -84.3779 4.71387 -125.794c3.48633 -18.7744 7.77832 -37.1523 15.5039 -54.6855c2.9082 -6.59375 6.33496 -15.3516 11.4463 -20.7471c6.77148 -7.15137 11.833 -3.3877 18.5762 2.49023c14.0566 12.252 20.1963 32.0449 25.5312 49.291
c6.37793 20.623 11.085 41.7109 15.2852 62.873c7.20801 36.3184 13.2061 72.8359 22.4463 108.708c0.169922 0.993164 0.404297 1.9541 0.730469 2.87598c0.163086 0.621094 0.308594 1.24512 0.475586 1.86621c0.34082 1.28027 1.19531 2.30859 2.33008 3.14551
c15.5898 20.0059 74.1455 16.4414 75.2412 -10.4844c2.44434 -59.9844 4.54395 -120.143 6.16895 -180.159c0.330078 -12.1592 0.592773 -24.3184 0.78418 -36.4814c12.8408 7.81055 25.5215 15.8838 37.8721 24.4502c17.9912 12.4756 34.9746 25.4434 44.0977 45.9561z
M126.674 -292.424c57.9102 65.667 54.2168 164.536 51.3936 246.354c-0.0527344 1.53906 -0.130859 3.07812 -0.1875 4.61719c-10.0986 -5.62207 -20.1758 -11.2793 -30.1855 -17.0537c-35.0166 -20.1973 -69.4414 -41.7988 -100.411 -67.8984
c-30.8135 -25.9648 -61.1338 -57.6152 -71.3242 -97.8184c-9.90723 -39.0928 1.87988 -84.5312 40.4971 -102.912c40.0391 -19.0547 83.4053 4.30957 110.218 34.7119z" />
    <glyph glyph-name="z" unicode="z" horiz-adv-x="304" 
d="M314.384 88.1641c12.2373 1.73438 22.9238 -11.2529 6.56836 -13.5801c-20.0693 -2.8623 -39.085 -10.2188 -57.2637 -19.6504c11.5957 -18.0586 19.7012 -38.8086 23.0918 -61.7764c6.63281 -44.9092 -5.32812 -92.0889 -25.5146 -132.153
c-20.9238 -41.5225 -49.7295 -83.1367 -85.3066 -113.4c-33.2432 -28.2812 -73.375 -48.6348 -116.767 -55.0518c-36.2725 -5.35938 -79.625 -1.05273 -93.0332 39.2383c-13.9121 41.8164 9.58691 88.0527 33.3457 121.274c24.9463 34.8818 54.2559 66.6992 85.8076 95.6895
c33.3145 30.6113 69.4668 58.1152 107.211 83.0225c3.69922 2.44043 7.41992 4.88086 11.1553 7.31445c-23.2158 39.2803 -66.1885 64.1025 -114.876 49.999c-12.8408 -3.7207 -30.1436 -4.10059 -41.2461 4.69238c-9.50586 7.52734 -7.93457 17.9951 2.50098 23.9297
c20.2471 11.5137 39.6953 24.7119 57.9766 39.1553c15.5225 12.2627 39.5859 29.2812 48.1699 47.3145c13.248 27.8232 -34.7832 24.9463 -49.0957 23.2051c-25.1562 -3.05762 -49.0635 -10.9355 -71.5166 -22.5811c-7.85645 -4.0752 -30.0967 3.39844 -17.4795 9.96387
c29.6221 15.4082 61.4785 24.9531 94.8213 27.4609c20.8564 1.56738 48.9316 1.8125 64.2227 -15.3906c19.7471 -22.2119 0.851562 -50.6914 -13.1348 -69.4092c-7.18945 -9.62305 -14.8232 -18.501 -22.9141 -26.8223c44.2109 -5.66504 85.2725 -27.877 112.791 -62.1348
c19.1152 9.39648 39.1211 16.6611 60.4854 19.6904zM148.518 -210.676c42.3486 54.7988 80.8145 126.748 72.5391 198.062c-1.42969 12.3193 -4.60742 24.3047 -9.2793 35.5137c-3.08594 -2.08203 -6.15723 -4.16406 -9.2002 -6.21777
c-34.4639 -23.2656 -67.3271 -48.9072 -97.8076 -77.209c-25.7627 -23.9219 -50.0635 -49.7344 -71.4883 -77.6396c-22.2646 -29.001 -45.6719 -66.4512 -43.6709 -104.601c0.94043 -17.9482 10.0391 -40.3662 28.8174 -46.1904
c17.0938 -5.30273 38.6533 3.28516 53.8066 10.7764c30.7354 15.1924 55.5361 40.6572 76.2832 67.5049z" />
    </font>
</defs>
</svg>
